Bit Torrent Scene a public file sharing platform Home Upload Categories Collections Blog About

5.XXX Free Porno Erotika Movies Site Rip-Gold

DOWNLOAD TORRENT

Posted on February 23, 2011 in Misc » Others , downloaded 378 times

Size: 1.47 GB , Seeds: 0 , Peers: 1 ( Updated August 13, 2012 - Refresh )

* Download via Magnet Link

* To download files you need a Bittorrent Client , * How to download torrents from Bit Torrent Scene?

advertising ( remove )

External Info

Trailer | Wikipedia | Other Info

Internal Files

5.XXX Free Porno Erotika Movies Site Rip-Gold
5 XXX Free Porno Erotika Movies DvDrIpp.rar   1.46 GB
Demonoid.nfo   223 Byte
Torrent Downloaded from Demonoid.com.txt   68 Byte
tracked_by_h33t_com.txt   62 Byte

Hash Code

c3f0e241d35e807983b5e51222a6826be747e9cf

Description



*********** **** **** *** ******** *********** **** *** **********
*+* +*+*+* *+*+*+ *+* *+* *+* *+* *+* *+*+* *+* *+*
+*+ +*+ +*+*+ +*+ +*+ +*+ +*+ +*+ *+*+*+ +*+ +*+
+$+ +$+ +*+ +$+ +$++*++$++* *$* +$+ +$+ +*+ +$+ +$++*++$
+$+ +$+ +$+ +$+ +$+ +$+ +$+$ +$+ +$+ +$+$+$ +$+
$+$ $+$ $+$ $+$ $+$ $+$ $+$ $+$ $+$ $+$+$ $+$
$$$$$$$$$$$ $$$ $$$ $$$ $$$ $$$$$$$$ $$$$$$$$$$$ $$$ $$$$ $$$$$$$$$$




Another Fine Release Brought to you from - IMAGiNE


***********************************************************************************
18 Years Old 2011 TS XViD -
***********************************************************************************

Ripper ...........:IMAGiNE
IMDB Rating.......:4.9/10
Video Codec.......:XVID
Release Date......:16/02/11
Audio Codec.......:AC-3
Theatre Date......:14/01/11
Audio Bitrate.....:256 Runtime...........:1h 42mn
Subtitles.........:NIL Language..........:ENGLISH
Resolution........:688 x 384


DETAILS:

Video
ID : 0
Format : MPEG-4 Visual
Format profile : Advanced Simple@L5
Format settings, BVOP : Yes
Format settings, QPel : No
Format settings, GMC : No warppoints
Format settings, Matrix : Default (MPEG)
Muxing mode : Packed bitstream
Codec ID : XVID
Codec ID/Hint : XviD
Duration : 1h 42mn
Bit rate : 1 786 Kbps
Width : 688 pixels
Height : 384 pixels
Display aspect ratio : 16:9
Frame rate : 25.000 fps
Color space : YUV
Chroma subsampling : 4:2:0
Bit depth : 8 bits
Scan type : Progressive
Bits/(Pixel*Frame) : 0.270
Stream size : 1.28 GiB (87%)
Writing library : XviD 61

Audio
ID : 1
Format : AC-3
Format/Info : Audio Coding 3
Mode extension : CM (complete main)
Codec ID : 2000
Duration : 1h 42mn
Bit rate mode : Constant
Bit rate : 256 Kbps
Channel(s) : 2 channels
Channel positions : Front: L R
Sampling rate : 48.0 KHz
Bit depth : 16 bits
Stream size : 188 MiB (12%)
Alignment : Aligned on interleaves
Interleave, duration : 40 ms (1.00 video frame)
Interleave, preload duration : 512 ms







SOURCES:

VIDEO: Jailbait... Thanks
AUDIO: Thanks matey...

NOTES:

IMAGiNE bringing you another release..........The Dilemma 2011

Here we are with a nice encode of this one for you all. Now for the video we just made a script
containing white balance, rgb eq, sharpness, chroma, brightness, contrast ect. Not a great video, but watchable.
The video was missing in 2 spots for about 30-40 seconds each, but nothing is missed really. The audio
we got from a friend thanks bro... With the audio it was just a matter of syncing it to the video.

Enjoy ;)

SCREENS:


GREETS:

FLAWL3SS,ViSiON,FUSiON,Rx,SecretMyth,BirdFlu,ELEKTRI4KA,SERENiTY and Autotron
And to all the other p2p grps past and present


Looking for these,syncers,cammers,silver supplier,Audio.....Have anything to offer????......
Contact us imaginegroup@hushmail.com

Trackers

Refresh Leechers : Updated August 13, 2012

1. http://tracker.thepiratebay.org/announce

2. udp://tracker.thepiratebay.org:80/announce

3. udp://tracker.openbittorrent.com:80/announce

4. udp://tracker.publicbt.com:80/announce

5. http://tracker.publicbt.com/announce

6. http://tracker.publicbt.org/announce

7. http://exodus.desync.com:6969/announce

8. http://bt1.the9.com:6969/announce

9. http://nyaatorrents.info:3277/announce

Comments

You must log in to add a comment.

Embed Code

Sharing Widget

Related torrents

FILENAME SIZE SEEDS PEERS ADDED UPD
[i] Rod-hungry chicks pick up bro gratis hard core free porno 40.56 MB 0 1 1 year 2 months

Top Misc ( auto generated report )

FILENAME SIZE SEEDS PEERS ADDED UPD
[i] Jessie J, Ariana Grande & Nicki Minaj - Bang Bang 2014 - iTu 6.97 MB 226 50 4 hours 2 hours
[i] Ultra Mixed HD Wallpapers Pack (25.07.14) 936.3 MB 197 54 2 days 1 day
[i] Lynda - Android Essential Training Tutorial 1.09 GB 92 104 2 days 1 day
[i] 50 Breathtaking Nature HD Wallpapers 2560 X 1600 Px [Set 25] 70.16 MB 87 35 3 days 2 days
[i] Wedding Photography for Everyone Fundamentals with Chris Orwig 648.32 MB 66 32 2 days 1 day
[i] Bianca Beauchamp - Wet Lust - HD 99 22.67 MB 61 13 1 day 20 hours
[i] 40 Amazing Landscapes HD Wallpapers 2560 X 1600 Px [Set 4] 73.04 MB 61 14 3 days 2 days
[i] PARTYNEXTDOOR - PARTYNEXTDOOR TWO 2014 - iTunes - Album 93.91 MB 59 34 4 hours 2 hours
[i] 30 Sexy Fantasy Mythical Girls 3D Super Wallpapers 8.27 MB 57 12 2 days 1 day
[i] [18+] 68 Bikini Super Hot and Sexy Models Wallpapers [FULL HD RES] 38.21 MB 57 11 2 days 1 day