Bit Torrent Scene a public file sharing platform Home Upload Categories Collections Blog About

A.Nightmare.On.Elm.Street.1984.BRrip.720p.Dual.Audio.Eng-Hindi~M

DOWNLOAD TORRENT

Posted on December 18, 2011 in Misc » Others , downloaded 24 times , verified torrent

Size: 2.3 GB , Seeds: 1 , Peers: 1 ( Updated December 16, 2012 - Refresh )

* Download via Magnet Link

* To download files you need a Bittorrent Client , * How to download torrents from Bit Torrent Scene?

advertising ( remove )

External Info

Trailer | Wikipedia | Other Info

Internal Files

A.Nightmare.On.Elm.Street.1984.BRrip.720p.Dual.Audio.Eng-Hindi~MSBHATTI
A.Nightmare.On.Elm.Street.1984.BRrip.720p.Dual,Audio,Eng-Hindi~MSBHATTI (Sample).mkv   26.44 MB
anightmareonelmstreet12.png   1.05 MB
anightmareonelmstreet13.png   1022.87 KB
anightmareonelmstreet15.png   907.57 KB
anightmareonelmstreet14.png   628.34 KB
anightmareonelmstreet1.png   453.57 KB
A.Nightmare.On.Elm.Street.1984.BRrip.720p.Dual,Audio,Eng-Hindi~MSBHATTI.mkv   2.27 GB
A Nightmare On Elm Street Front Cover.jpg   1.04 MB
INFO.txt   7.29 KB
JOIN IN FACE BOOK N ORKUT..txt   695 Byte

Hash Code

aad4558cf4bd96c194a1b9ae9e15232c18f0311d

Description


A.Nightmare.On.Elm.Street.1984.BRrip.720p.Dual.Audio.Eng-Hindi~MSBHATTI

IMDB:- http://www.imdb.com/title/tt0087800/

PLOT:- In the dreams of his victims, a spectral child murderer stalks the children of the members of the lynch mob that killed him.

Director: Wes Craven
Writer: Wes Craven
Stars: Heather Langenkamp, Johnny Depp and Robert Englund

INFO:-
General
Complete name : A Nightmare On Elm Street 1984 BRrip 720p Dual Audio Eng-Hindi~MSBHATTI.mkv
Format : Matroska
File size : 2.27 GiB
Duration : 1h 27mn
Overall bit rate : 3 706 Kbps
Encoded date : UTC 2011-12-05 11:51:09
Writing application : mkvmerge v3.3.0 ('Language') built on Mar 24 2010 14:59:24
Writing library : libebml v0.8.0 + libmatroska v0.9.0

Video
ID : 1
Format : AVC
Format/Info : Advanced Video Codec
Format profile : High@L4.1
Format settings, CABAC : Yes
Format settings, ReFrames : 6 frames
Codec ID : V_MPEG4/ISO/AVC
Duration : 1h 27mn
Bit rate : 2 800 Kbps
Width : 1 280 pixels
Height : 720 pixels
Display aspect ratio : 16:9
Frame rate : 25.000 fps
Original frame rate : 23.976 fps
Color space : YUV
Chroma subsampling : 4:2:0
Bit depth : 8 bits
Scan type : Progressive
Bits/(Pixel*Frame) : 0.122
Stream size : 1.75 GiB (77%)
Title : MSBHATTI
Writing library : x264 core 116 r2074 2641b9e
Encoding settings : cabac=1 / ref=6 / deblock=1:-2:-2 / analyse=0x3:0x133 / me=umh / subme=10 / psy=1 / psy_rd=1.50:0.00 / mixed_ref=1 / me_range=32 / chroma_me=1 / trellis=2 / 8x8dct=1 / cqm=0 / deadzone=21,11 / fast_pskip=1 / chroma_qp_offset=-2 / threads=12 / sliced_threads=0 / nr=0 / decimate=1 / interlaced=0 / bluray_compat=0 / constrained_intra=0 / bframes=6 / b_pyramid=2 / b_adapt=2 / b_bias=0 / direct=1 / weightb=1 / open_gop=0 / weightp=2 / keyint=250 / keyint_min=23 / scenecut=40 / intra_refresh=0 / rc_lookahead=50 / rc=2pass / mbtree=1 / bitrate=2800 / ratetol=1.0 / qcomp=0.60 / qpmin=10 / qpmax=51 / qpstep=4 / cplxblur=20.0 / qblur=0.5 / ip_ratio=1.40 / aq=1:1.50
Language : English

Audio #1
ID : 2
Format : AC-3
Format/Info : Audio Coding 3
Mode extension : CM (complete main)
Codec ID : A_AC3
Duration : 1h 27mn
Bit rate mode : Constant
Bit rate : 512 Kbps
Channel(s) : 6 channels
Channel positions : Front: L C R, Side: L R, LFE
Sampling rate : 48.0 KHz
Bit depth : 16 bits
Compression mode : Lossy
Stream size : 320 MiB (14%)
Title : MSBHATTI
Language : English

Audio #2
ID : 3
Format : MPEG Audio
Format version : Version 1
Format profile : Layer 3
Codec ID : A_MPEG/L3
Codec ID/Hint : MP3
Duration : 1h 27mn
Bit rate mode : Constant
Bit rate : 256 Kbps
Channel(s) : 2 channels
Sampling rate : 48.0 KHz
Compression mode : Lossy
Stream size : 160 MiB (7%)
Title : MSBHATTI
Language : Hindi

SCREENSHOTS:-
SCREENSHOT
SCREENSHOT
SCREENSHOT
SCREENSHOT
SCREENSHOT


Torrent location

http://thepiratebay.org/torrent/6895758/A.Nightmare.On.Elm.Street.1984.BRrip.720p.Dual.Audio.Eng-Hindi_M

Scrape History ( seeds + peers )

Trackers

Refresh Leechers : Updated December 16, 2012

1. http://tracker.thepiratebay.org/announce

2. udp://tracker.openbittorrent.com:80

3. udp://tracker.ccc.de:80

4. udp://tracker.istole.it:80

5. udp://tracker.publicbt.com:80

6. http://pow7.com/announce

7. http://exodus.1337x.org:1337/announce

8. http://nemesis.1337x.org/announce

9. http://tracker.csze.com/announce

10. http://nyaatorrents.info:3277/announce

11. http://genesis.1337x.org:1337/announce

12. http://genesis.1337x.org/announce

13. http://10.rarbg.com/announce

14. http://exodus.1337x.org/announce

Comments

You must log in to add a comment.

Embed Code

Sharing Widget

Related torrents

FILENAME SIZE SEEDS PEERS ADDED UPD
[i] Teen Anal Nightmare - Tinslee Reagan
posted by bboomindia in Porn - Movies
138.07 MB 223 230 3 months 2 weeks
[i] Nightmare.Painajainen.Merella.2012.DVDRip.XviD-FiCO 703.07 MB 214 11 1 year 1 year
[i] Avenged-Sevenfold-Nightmare-2010-CR 99.41 MB 128 33 1 year 1 year
[i] The Wil Wheaton Project S01E04 A Nightmare on Wilm Street 4 The Dream Master 720p HDTV x264-DHD [eztv] 530.65 MB 125 5 1 month 2 days
[i] A Nightmare on Elm Street 2010 DVDRip XviD-Larceny 709.15 MB 111 14 3 years 1 year
[i] Killer Is Dead Nightmare Edition [MULTI][PCDVD][FTS] 10.24 GB 107 92 1 month 1 week
[i] A Nightmare on Elm Street (1984) 1080p BrRip x264 - YIFY 1.76 GB 102 32 1 year 11 months
[i] Alan Wakes American Nightmare-RELOADED 2.58 GB 92 34 1 year 1 year
[i] [MT]Tim Burtonís The nightmare before Christmas[DvdRip-Divx-Ita-AC3] 697.3 MB 83 8 3 years 1 year
[i] Twiztid - A New Nightmare EP 2013 Horrorcore 320kbps CBR MP3 [VX] [P2PDL] 97.16 MB 80 8 11 months 10 months

Top Misc ( auto generated report )

FILENAME SIZE SEEDS PEERS ADDED UPD
[i] [18+] 133 Super Hot Erotic and Bikini Girls Wallpapes Pack[1900x1200] 53.58 MB 93 17 1 day 20 hours
[i] Desktop Wallpapers - Girls [1920x1080 - 5597x4200] [95 pics.] (2014) JPG 124.66 MB 92 11 3 days 2 days
[i] LYNDA_MANAGING_STRESS_TUTORIAL-kEISO 231.07 MB 90 47 1 day 5 hours
[i] Ann Rosman - Havskatten - Svensk 317.15 MB 80 12 3 days 2 days
[i] Phlearn - Pro Photoshop 101 600.32 MB 72 55 2 days 1 day
[i] LYNDA_UP_AND_RUNNING_WITH_SOCIAL_SELLING_TUTORIAL-kEISO 111.31 MB 71 24 1 day 4 hours
[i] 40 Stunning Sunsets and Sunrises HD Wallpapers 2560 X 1600 Px [Set 2] 104.91 MB 66 15 3 days 2 days
[i] 50 Beautiful Interior Design Wallpapers 1600 X 1200 Px [Set 2] 42.02 MB 62 16 3 days 2 days
[i] [18+] 109 Erotic Super Hot Girls Wallpapers [FULL HD RES] 42.46 MB 60 8 2 days 1 day
[i] 40 Beautiful Mountains Full HD Wallpapers 1920 X 1080 Px [Set 2] 43.64 MB 51 20 2 days 1 day