Bit Torrent Scene a public file sharing platform Home Upload Categories Collections Blog About

Agente 077 Missione Speciale Lady Chaplin (1966) [DivX - Italian Mp3] MIRCrew [TNT Village]

DOWNLOAD TORRENT

Posted by robbyrs •1387 on August 21, 2013 in Movies » Action , downloaded 14 times , verified torrent

Size: 990.94 MB , Seeds: 0 , Peers: 3 ( Updated August 25, 2014 - Refresh )

* Download via Magnet Link , * To download files you need a Bittorrent Client , * How to download torrents from Bit Torrent Scene?

advertising ( remove )

External Info

Subtitles | Trailer | Wikipedia | Other Info

Internal Files

Agente 077 Missione Speciale Lady Chaplin (1966).avi
Agente 077 Missione Speciale Lady Chaplin (1966).avi   990.94 MB

Hash Code

92ec26af82b250c15a0450e5dc3b3a4ea01e9dc2

Description

Agente 077 Missione Speciale Lady Chaplin (1966) [DivX - Italian Mp3] MIRCrew [TNT Village]




SCREENSHOT

Agente 077 Missione Speciale Lady Chaplin (1966)

a breve anche gli altri 2

*************************************************



SCREENSHOT

SCREENSHOT

Paese: Italia
Anno: 1966
Genere: Spionaggio
durata 91'
Regia di Alberto De Martino

************************************************

SCREENSHOT

SCREENSHOT

Ken Clark, Daniela Bianchi, Jacques Bergerac, Helga Liné, Mabel Karr

SCREENSHOT

SCREENSHOT

L'agente speciale Malloy ha una nuova missione, scoprire i piani della "rivale" Arabella Chaplin, conosciuta nel mondo delle spie come "Lady Chaplin". La donna non sa di essere minacciata

da un complice, che peraltro fa di tutto per togliere di mezzo anche Malloy. Tra doppi giochi e intrighi da guerra fredda, i due agenti segreti ...........


Missione speciale Lady Chaplin è il terzo capitolo della saga con protagonista l'agente segreto 077, nome o meglio cifra scelto/a con grandissima fantasia e personaggio che palesemente

scimmiotta le gesta del ben più celebre James Bond. L'interprete è sempre lui, il moderatamente tenebroso Ken Clark, qui affiancato dalla piacente Daniele Bianchi in una spy story con

telefonatissimo finale rosa; la sceneggiatura di Sandro Continenza, Marcello Coscia e Hipolito De Diego (nel segno della più classica delle coproduzioni italo-spagnole, come spesso avveniva

ai tempi) non brilla per originalità e quantomeno la regia a quattro mani di De Martino e Grieco (già dietro la macchina da presa, da solo, nei due precedenti film della serie di 077) ha il

merito di puntare dritto al sodo senza troppi fronzoli, mettendo in scena in maniera sufficientemente convincente azione, brividi e avventura.

SCREENSHOT

SCREENSHOT


DATI FILE:


General
Complete name : Agente 077 Missione Speciale Lady Chaplin (1966).avi
Format : AVI
Format/Info : Audio Video Interleave
File size : 991 MiB
Duration : 1h 37mn
Overall bit rate : 1 416 Kbps

Video
ID : 0
Format : MPEG-4 Visual
Format settings, BVOP : Yes
Format settings, QPel : No
Format settings, GMC : No warppoints
Format settings, Matrix : Default (H.263)
Muxing mode : Packed bitstream
Codec ID : DX50
Codec ID/Hint : DivX 5
Duration : 1h 37mn
Bit rate : 1 279 Kbps
Width : 704 pixels
Height : 352 pixels
Display aspect ratio : 2.000
Frame rate : 25.000 fps
Color space : YUV
Chroma subsampling : 4:2:0
Bit depth : 8 bits
Scan type : Progressive
Bits/(Pixel*Frame) : 0.206
Stream size : 895 MiB (90%)
Writing library : DivX 5.1.1 (Maupiti) (UTC 2003-11-19)

Audio
ID : 1
Format : MPEG Audio
Format version : Version 1
Format profile : Layer 3
Codec ID : 55
Codec ID/Hint : MP3
Duration : 1h 37mn
Bit rate mode : Constant
Bit rate : 128 Kbps
Channel(s) : 2 channels
Sampling rate : 44.1 KHz
Stream size : 89.5 MiB (9%)
Alignment : Split accross interleaves
Interleave, duration : 40 ms (1.00 video frame)
Interleave, preload duration : 500 ms
Writing library : LAME3.92 AnA÷ˆkÉ




SCREENSHOT

Scrape History ( seeds + peers )

Trackers

Refresh Leechers : Updated August 25, 2014

1. http://tracker.tntvillage.scambioetico.org:2710/announce

2. udp://fr33dom.h33t.com:3310/announce

3. http://tracker2.torrentbox.com:2710/announce

4. http://tracker.torrentbox.com:2710/announce

5. http://tracker1.torrentbox.com:2710/announce

6. http://tracker.podtropolis.com:2711/announce

7. udp://tracker.1337x.org:80/announce

8. udp://tracker.openbittorrent.com:80/announce

9. http://tracker.openbittorrent.com:80/announce

10. udp://tracker.istole.it:80/announce

11. http://9.rarbg.com:2710/announce

12. udp://tracker.btscene.eu:80/announce

Comments

You must log in to add a comment.

Embed Code

Sharing Widget

Top Movies ( auto generated report )

FILENAME SIZE SEEDS PEERS ADDED UPD
[i] Predestination (2014) 720p BrRip x264 - YIFY
Movies - Sci-Fi , Quality: Audio 9/10 - Video 9/10
758.5 MB 19781 14553 1 day 21 hours
[i] Housebound (2014) 1080p BrRip x264 - YIFY 1.65 GB 7369 7862 1 day 15 hours
[i] The Theory of Everything 2014 HC HDRip XViD AC3-juggs[ETRG]
Movies - Drama , Quality: Audio 8/10 - Video 8/10
1.39 GB 7298 5518 3 days 1 day
[i] The Boxtrolls 2014 HDRip XViD-juggs[ETRG] 706.57 MB 6634 5176 1 day 17 hours
[i] At the Devils Door (2014) 720p BrRip x264 - YIFY
Movies - Horror , Quality: Audio 8/10 - Video 8/10
750.5 MB 5082 3527 2 days 1 day
[i] Teenage Mutant Ninja Turtles (2014) 720p BrRip x264 - YIFY 806.5 MB 3816 15946 15 hours 13 hours
[i] Happy Ending (2014) - 1CD - DVDSCR-Rip - Hindi - x264 - MP3 - Mafiaking - Team TellyTNT ExClusive 701.39 MB 3722 6109 3 days 2 days
[i] Magic In The Moonlight 2014 DVDRip XviD AC3-UT
Movies - Comedy , Quality: Audio 7/10 - Video 7/10
1.45 GB 3432 4207 2 days 1 day
[i] Predestination 2014 1080p BluRay H264 AAC-RARBG 1.87 GB 2019 957 1 day 8 hours
[i] Teenage Mutant Ninja Turtles (2014) 1080p BrRip x264 - YIFY 1.64 GB 1973 10737 12 hours 10 hours