Bit Torrent Scene a public file sharing platform Home Upload Categories Collections Blog About

Aladdin (1992) 1080p (mkv)(eng nl audio AC 3) TBS

DOWNLOAD TORRENT

Posted on March 31, 2011 in Movies » Misc , downloaded 312 times , verified torrent

Size: 4.36 GB , Seeds: 9 , Peers: 0 ( Updated October 31, 2014 - Refresh )

* Download via Magnet Link , * To download files you need a Bittorrent Client , * How to download torrents from Bit Torrent Scene?

advertising ( remove )

External Info

Subtitles | Trailer | Wikipedia | Other Info

Internal Files

Aladdin (1992) 1080p TBS
Aladdin.1992.1080p.HDTV.x264-SHiTSoNy.mkv   4.36 GB
poster.jpg   184.14 KB
26018_aladdin_blu-ray.jpg   160.71 KB
8243e_.jpg   52.24 KB
Media info.nfo   3.64 KB
Aladdin (1992) 1080p TBS.nfo   1.69 KB
Black-Sam.txt   124 Byte
Torrent_downloaded_from_AhaShare.com.txt   63 Byte
Torrent_downloaded_from_Demonoid.me.txt   46 Byte
tracked By movie-torrentz.txt   36 Byte
Torrent_downloaded_from_www.puretorrents.cc.txt   36 Byte

Hash Code

7fffc2e87ad41e5ff1d1e6634bde98533809248c

Description

Aladdin (1992) 1080p (mkv)(eng nl audio AC 3) TBS



#mediaget_box a img {border: 0;}
#mediaget_box{background:url(mediaget/promo_bg.jpg) no-repeat;border:0px solid green;height:104px;margin:20px auto;overflow:visible;position:relative;text-align:left; width:800px;}
#mediaget_baner{color:#000;float:left;font:18px/20px Tahoma; margin:5px 0px; position:absolute; top: 5px; left: 200px; }
#download_button{margin:10px 0px 0px 10px;}
#download_button img{height:36px;width:153px;}
#down_btn_block{background:url(mediaget/button_bg.jpg) no-repeat;border:0px solid green;bottom:1px;height:50px;position:absolute;right:1px;width:169px;}
#flag_max_speed{background:url(mediaget/flag_max_speed.png) no-repeat;height:35px;margin-left:1px;width:180px;}
#flag_max_speed,#mediaget_box_logo{clear:both;float:left;}
#mediaget_box_header{background:url(mediaget/header.jpg) no-repeat;float:left;}
#mediaget_box_logo img{height:54px;margin:8px 0px 0px 17px;width:165px;}
#mediaget_baner a:active{color:#0374f1;}
#mediaget_baner a:visited{color:#0374f1;}
#mediaget_baner a:hover{text-decoration:none;}
#mediaget_baner a:link{color:#0374f1;text-decoration:underline;}
#mediaget_baner p { padding: 0; margin: 0;}
#media_text{float:left; position:absolute; bottom: 10px; left: 200px; color:#000;}









Download "Aladdin (1992) 1080p (mkv)(eng nl audio AC 3) TBS" via MediaGet



Download at maximum speed using new torrent client!













Aladdin (1992) 1080p









Verenigde Staten

Animatie / Fantasy

90 minuten



geregisseerd door Ron Clements en John Musker

met de stemmen van Scott Weinger, Robin Williams en Linda Larkin



Aladdin is een jongen van de straat die in een druk dorp woont, samen met zijn aapje Abu. Als Prinses Jasmine het leven in het paleis zat wordt, besluit ze zich onder het volk te mengen. Ze komt Aladdin tegen, en hij wordt verliefd op haar. Aladdin wordt gevangen genomen, om vervolgens voor de slechte Jafar (de adviseur van de Sultan) een mysterieuze lamp te vinden.



http://www.moviemeter.nl/film/459



English



Storyline

Aladdin is a street-urchin who lives in a large and busy town long ago with his faithful monkey friend Abu. When Princess Jasmine gets tired of being forced to remain in the palace that overlooks the city, she sneaks out to the marketplace, where she accidentally meets Aladdin. Under the orders of the evil Jafar (the sultan's advisor), Aladdin is thrown in jail and becomes caught up in Jafar's plot to rule the land with the aid of a mysterious lamp. Legend has it that only a person who is a "diamond in the rough" can retrieve the lamp from the Cave of Wonders. Aladdin might fight that description, but that's not enough to marry the princess, who must (by law) marry a prince.





http://www.imdb.com/title/tt0103639/





Postinformatie

 

 Category .......: Video

 Format .........: x264HD

 Source .........: Retail

 Subtitle .......: Dutch subs optional  

 Genre ..........: Animation  

 Language........: English audio Dutch audio AC 3

 

 Weblink :  http://www.moviemeter.nl/film/459

 Weblink :  http://www.imdb.com/title/tt0103639/



TBS



MEDIA INFO



General

Complete name                    : Aladdin.1992.1080p.HDTV.x264-SHiTSoNy.mkv

Format                           : Matroska

File size                        : 4.36 GiB

Duration                         : 1h 26mn

Overall bit rate                 : 7 202 Kbps

Encoded date                     : UTC 2008-11-03 21:13:26

Writing application              : mkvmerge v2.3.0 ('Freak U') built on Sep  8 2008 18:32:16

Writing library                  : libebml v0.7.7 + libmatroska v0.8.1



Video

ID                               : 1

Format                           : AVC

Format/Info                      : Advanced Video Codec

Format profile                   : High@L4.1

Format settings, CABAC           : Yes

Format settings, ReFrames        : 4 frames

Muxing mode                      : Container profile=Unknown@4.1

Codec ID                         : V_MPEG4/ISO/AVC

Duration                         : 1h 26mn

Bit rate                         : 6 117 Kbps

Width                            : 1 904 pixels

Height                           : 1 080 pixels

Display aspect ratio             : 16:9

Frame rate                       : 25.000 fps

Original frame rate              : 23.976 fps

Color space                      : YUV

Chroma subsampling               : 4:2:0

Bit depth                        : 8 bits

Scan type                        : Progressive

Bits/(Pixel*Frame)               : 0.119

Stream size                      : 3.77 GiB (86%)

Writing library                  : x264 core 65 r1016M dbc5ef0

Encoding settings                : cabac=1 / ref=4 / deblock=1:-1:0 / analyse=0x3:0x113 / me=umh / subme=9 / psy_rd=0.7:0.0 / mixed_ref=1 / me_range=32 / chroma_me=1 / trellis=2 / 8x8dct=1 / cqm=0 / deadzone=21,11 / chroma_qp_offset=-4 / threads=3 / nr=0 / decimate=1 / mbaff=0 / bframes=3 / b_pyramid=1 / b_adapt=2 / b_bias=0 / direct=3 / wpredb=0 / keyint=250 / keyint_min=25 / scenecut=40(pre) / rc=2pass / bitrate=6117 / ratetol=1.0 / qcomp=0.60 / qpmin=10 / qpmax=51 / qpstep=4 / cplxblur=20.0 / qblur=0.5 / vbv_maxrate=40000 / vbv_bufsize=40000 / ip_ratio=1.40 / pb_ratio=1.30 / aq=1:1.00 / zones=123143,129173,q=25



Audio #1

ID                               : 2

Format                           : AC-3

Format/Info                      : Audio Coding 3

Mode extension                   : CM (complete main)

Codec ID                         : A_AC3

Duration                         : 1h 26mn

Bit rate mode                    : Constant

Bit rate                         : 384 Kbps

Channel(s)                       : 6 channels

Channel positions                : Front: L C R, Side: L R, LFE

Sampling rate                    : 48.0 KHz

Bit depth                        : 16 bits

Stream size                      : 238 MiB (5%)

Language                         : Dutch



Audio #2

ID                               : 3

Format                           : AC-3

Format/Info                      : Audio Coding 3

Mode extension                   : CM (complete main)

Codec ID                         : A_AC3

Duration                         : 1h 26mn

Bit rate mode                    : Constant

Bit rate                         : 448 Kbps

Channel(s)                       : 6 channels

Channel positions                : Front: L C R, Side: L R, LFE

Sampling rate                    : 48.0 KHz

Bit depth                        : 16 bits

Stream size                      : 278 MiB (6%)

Language                         : English



Text

ID                               : 4

Format                           : UTF-8

Codec ID                         : S_TEXT/UTF8

Codec ID/Info                    : UTF-8 Plain Text

Language                         : Dutch



       






Scrape History ( seeds + peers )

Trackers

Refresh Leechers : Updated October 31, 2014

1. http://fr33dom.h33t.com:3310/announce

2. http://exodus.1337x.org/announce

3. http://inferno.demonoid.me:3417/announce

4. http://genesis.1337x.org:1337/announce

5. http://tracker.publicbt.com:80/announce

6. http://tracker.openbittorrent.com:80/announce

7. http://exodus.1337x.org/announce

8. http://nemesis.1337x.org/announce

9. http://denis.stalker.h3q.com:6969/announce

10. http://tpb.tracker.prq.to/announce

11. http://10.rarbg.com/announce

12. http://pow7.com/announce

Comments

You must log in to add a comment.

Embed Code

Sharing Widget

Related torrents

FILENAME SIZE SEEDS PEERS ADDED UPD
[i] Aladdin (1992) 1080p ENG-ITA MultiSub x264 bluray
posted by ShivaShanti in Movies - Animation
4.38 GB 79 17 11 months 6 months
[i] Aladdin.1992.BluRay.Rip.1080p.ITA.ENG.DTS.AC3.By.B&S 8.16 GB 30 8 11 months 5 months
[i] Aladdin.1992.1080p.BluRay.X264-AMIABLE [PublicHD] 5.49 GB 19 6 1 year 2 months
[i] Aladdin.1992.1080p.BluRay.DTS.x264-HDMaNiAcS [PublicHD] 8.04 GB 6 3 1 year 2 months
[i] Aladdin (1992) 1080p BDRip AC3 x264(multiaudio-GREEK)-tomcat12 4.4 GB 4 1 1 year 2 months
[i] Aladdin [1992] HDTVRip 1080p [Eng Rus]-Junoon 793.3 MB 0 1 3 years 1 month
[i] Aladdin (1992), [1080p - H264 - Ita Eng Ac3 - SoftSub Ita Eng] HDTVFull [Tntvillage.Scambioetico] 7.29 GB 0 0 3 years 3 months

Top Movies ( auto generated report )

FILENAME SIZE SEEDS PEERS ADDED UPD
[i] Lucy (2014) 1080p BrRip x264 - YIFY
Movies - Sci-Fi , Quality: Audio 9/10 - Video 9/10
1.24 GB 22580 32906 14 hours 4 hours
[i] Fastlife 2014 FRENCH DVDRIP XVid-LYS
Movies - Comedy , Quality: Audio 8/10 - Video 8/10
700.57 MB 11037 2594 1 day 9 hours
[i] Lucy (2014) 720p BrRip x264 - YIFY
Movies - Sci-Fi , Quality: Audio 8/10 - Video 9/10
700.5 MB 11018 18985 13 hours 3 hours
[i] Predestination.2014.DVDRip.XviD-EVO
Movies - Thriller , Quality: Audio 8/10 - Video 8/10
979.57 MB 6733 24647 8 hours 4 hours
[i] The Boxtrolls 2014 720p WEBRip x264 CamAudio-JYK
Movies - Animation , Quality: Audio 6/10 - Video 8/10
1.94 GB 6651 6694 1 day 4 hours
[i] When the Game Stands Tall (2014) 720p BrRip x264 - YIFY
Movies - Drama , Quality: Audio 9/10 - Video 9/10
814.5 MB 5376 5905 19 hours 3 hours
[i] Rajadhi Raja (2014) - Malayalam - DVDRip - 700 MB - X264 - AAC 5.1 - E Subs
Movies - Action , Quality: Audio 8/10 - Video 8/10
696.83 MB 5157 2395 2 days 1 day
[i] Big Hero 6 2014 HDCAM NEW SOURCE XviD AC3 ACAB
Movies - Animation , Quality: Audio 4/10 - Video 6/10
966.32 MB 4749 3414 2 days 3 hours
[i] Guardians of the Galaxy (2014) Dual Audio DVDRip AVI
Movies - Sci-Fi , Quality: Audio 8/10 - Video 7/10
2.06 GB 4711 60 1 day 7 hours
[i] Happy Ending (2014) DVDSCR Rip Xvid AC3 Team TellyTNT Exclusive
Movies - Comedy , Quality: Audio 7/10 - Video 7/10
805.98 MB 4265 8495 1 day 4 hours