Bit Torrent Scene a public file sharing platform Home Upload Categories Collections Blog About

Alien vs Predator 2_Requiem [2007].DvdRip.XviD.(.avi)

DOWNLOAD TORRENT

Posted on January 23, 2011 in Movies » Misc , downloaded 25 times

Size: 1.08 GB , Seeds: 0 , Peers: 0 ( Updated October 23, 2014 - Refresh )

* Download via Magnet Link , * To download files you need a Bittorrent Client , * How to download torrents from Bit Torrent Scene?

advertising ( remove )

External Info

Subtitles | Trailer | Wikipedia | Other Info

Internal Files

AVP2 (2007) Requiem
AlienvsPredator2_Requiem(2007).DvdRip.XviD.avi   1.06 GB
Sample.avi   21.88 MB

Hash Code

fc5158cad9c505cfe2d045d6c57869338bb97460

Description



Alien vs Preadator 2_Requiem [2007].DvdRip.XviD.(.avi)


100% Clean, Tested & Working

-----------------------------------------------------------------------------

Storyline:
---------
A little town in the hills of Colorado will become the battleground between two of the deadliest extra-terrestrial lifeforms - the Alien and the Predator. When a Predator scout ship crash-lands in the hills outside the town, Alien facehuggers are released in the crash, and an even more evil creature - a hybrid Alien/Predator - is also released. A man & his son hunting in the forests near the crash site soon become the first victims of the facehuggers, and when a Predator receives data about the crash on his home planet, he comes to Earth. One at a time, the inhabitants of the town become targets of the Aliens and the Predator, including the local sheriff, a young female soldier recently returned from Iraq, and several teens. Though the National Guard is called in, they are unable to stop the deadly creatures, and a plan is set in motion to destroy the town with a nuclear device...


Cast:
----
Steven Pasquale............Dallas
Reiko Aylesworth...........Kelly
John Ortiz.................Morales
Johnny Lewis...............Ricky
Ariel Gade.................Molly
Kristen Hager..............Jesse
Sam Trammell...............Tim
Robert Joy.................Col. Stevens
David Paetkau..............Dale
Tom Woodruff Jr............Alien
Ian Whyte..................Predator
Chelah Horsdal.............Darcy
Meshach Peters.............Curtis
Matt Ward..................Mark
Michal Suchánek............Nick (as Michal Suchanek)


Video Details:
-------------
Format : AVI
Format/Info : Audio Video Interleave
File size : 1.06 GiB
Duration : 1h 36mn
Overall bit rate : 1 562 Kbps
Writing application : VirtualDubMod 1.5.4.1 (build 2178/release)
Writing library : VirtualDubMod build 2178/release


Video:
-----
Format : MPEG-4 Visual
Format profile : Advanced Simple@L5
Format settings, BVOP : Yes
Format settings, QPel : No
Format settings, GMC : No warppoints
Format settings, Matrix : Custom
Codec ID : XVID
Codec ID/Hint : XviD
Duration : 1h 36mn
Bit rate : 1 107 Kbps
Width : 720 pixels
Height : 304 pixels
Display aspect ratio : 2.35:1
Frame rate : 25.000 fps
Color space : YUV
Chroma subsampling : 4:2:0
Bit depth : 8 bits
Scan type : Progressive
Bits/(Pixel*Frame) : 0.202
Stream size : 767 MiB (71%)
Writing library : XviD 58


Audio:
-----
Format : AC-3
Format/Info : Audio Coding 3
Mode extension : CM (complete main)
Codec ID : 2000
Duration : 1h 36mn
Bit rate mode : Constant
Bit rate : 448 Kbps
Channel(s) : 6 channels
Channel positions : Front: L C R, Side: L R, LFE
Sampling rate : 48.0 KHz
Bit depth : 16 bits
Stream size : 311 MiB (29%)
Alignment : Aligned on interleaves
Interleave, duration : 96 ms (2.40 video frames)
Interleave, preload duration : 96 ms

-----------------------------------------------------------------------------


*Remember To Seed



*HAVE FUN AND ENJOY*

Scrape History ( seeds + peers )

Trackers

Refresh Leechers : Updated October 23, 2014

1. http://tracker.thepiratebay.org/announce

2. udp://tracker.thepiratebay.org:80/announce

3. udp://tracker.openbittorrent.com:80/announce

4. udp://tracker.istole.it:80/announce

5. http://tracker.istole.it/announce

6. udp://tracker.publicbt.com:80/announce

7. http://tracker.publicbt.com/announce

8. http://tracker.publicbt.org/announce

9. http://10.rarbg.com/announce

10. http://nyaatorrents.info:3277/announce

11. http://exodus.desync.com:6969/announce

12. http://bt1.the9.com:6969/announce

13. http://torrent-download.to:5869/announce.php

14. http://genesis.1337x.org:1337/announce

15. http://nemesis.1337x.org/announce

Comments

You must log in to add a comment.

Embed Code

Sharing Widget

Related torrents

FILENAME SIZE SEEDS PEERS ADDED UPD
[i] Alien vs. Predator - Fire and Stone 02 (of 04) (2014) (digital) 37.33 MB 30 2 1 week 1 week
[i]
[i]
ALIEN vs PREDATOR 2004 DVDRip XviD-DiNGiE(Kingdom Release)
703.3 MB 26 4 4 years 1 month
[i] Alien Versus Predator Classic 2000 (GOG) 464.15 MB 23 2 1 month 2 weeks
[i] Alien vs Predator Requiem Unrated ITA ENG AC3 BDRip 1080p X265 ZMachine
posted by ZMachine95 in Movies - Fantasy
2.14 GB 21 10 8 months 2 months
[i] AVP Alien vs Predator 2004 720p BRRip x264 MP4 Multisubs AAC-CC
posted by Cavemania in Movies - Action
2.26 GB 21 3 3 months 2 weeks
[i] Alien vs Predator Unrated ITA ENG AC3 BDRip 1080p X265 ZMachine
posted by ZMachine95 in Movies - Fantasy
2.7 GB 16 7 8 months 2 months
[i] AVP.Alien.vs.Predator.2004.UNRATED.720p.BluRay.x264.DTS-KiNGS [P 5.55 GB 13 2 1 year 3 months
[i] Alien vs. Predator - Requiem*2007* (Theatrical Cut)[mini-HD.1080p.Dual audio.AC3.BluRay.x264-LEON 345] [Lektor i Napisy PL] 3.84 GB 8 2 7 months 2 months
[i] Alien.Versus.Predator.2004.1080p.BluRay.H264.AAC-RARBG 2.08 GB 8 2 3 months 1 week
[i] Alien vs. Predator *2004* (Unrated)[mini-HD.1080p.Dual audio.AC3.BluRay.x264-LEON 345] [Lektor i Napisy PL] 3.99 GB 6 2 7 months 2 months

Top Movies ( auto generated report )

FILENAME SIZE SEEDS PEERS ADDED UPD
[i] Falcon Rising (2014) 720p BrRip x264 - YIFY
Movies - Action , Quality: Audio 8/10 - Video 8/10
760.5 MB 12387 6150 3 days 20 hours
[i] Fastlife 2014 FRENCH DVDRIP XVid-LYS 700.57 MB 11296 3358 20 hours 18 hours
[i] Sin City A Dame to Kill For (2014) 1080p BrRip x264 - YIFY
Movies - Action , Quality: Audio 9/10 - Video 9/10
1.64 GB 6585 3339 2 days 1 day
[i] Thunder and the House of Magic (2013) 720p BrRip x264 - YIFY
Movies - Animation , Quality: Audio 9/10 - Video 9/10
696.5 MB 6042 2984 2 days 20 hours
[i] Guardians of the Galaxy (2014) Dual Audio DVDRip AVI 2.06 GB 5462 50 18 hours 16 hours
[i] Dumb And Dumber To 2014 720p HDCAM FIRST ENG x264 Pimp4003
Movies - Comedy , Quality: Audio 5/10 - Video 6/10
1.81 GB 5189 3171 2 days 1 day
[i] Rajadhi Raja (2014) - Malayalam - DVDRip - 700 MB - X264 - AAC 5.1 - E Subs
Movies - Action , Quality: Audio 8/10 - Video 8/10
696.83 MB 5157 2395 1 day 20 hours
[i] Guardians.of.the.Galaxy.2014.1080p.BluRay.x264-SPARKS
Movies - Action , Quality: Audio 9/10 - Video 9/10
8.74 GB 4573 2702 18 hours 16 hours
[i] Dolphin Tale 2 (2014) 1080p BrRip x264 - YIFY
Movies - Drama , Quality: Audio 9/10 - Video 9/10
1.64 GB 4437 2996 2 days 20 hours
[i] Interstellar 2014 TS XViD AC3 MrSeeN-SiMPLE
Movies - Sci-Fi , Quality: Audio 3/10 - Video 5/10
1.36 GB 3146 4036 2 days 20 hours