Home Upload Categories Collections Blog About

Alien vs Predator 2_Requiem [2007].DvdRip.XviD.(.avi)

DOWNLOAD TORRENT

Posted 3 years ago in Movies » Misc , downloaded 20 times

Size: 1.08 GB , Seeds: 25 , Peers: 5

Updated 2 years ago

* Download via Magnet Link , * Anonymous Download with Torrent Privacy

* To download files you need a Bittorrent Client , * How to download torrents from BitTorrentScene?

advertising ( remove )

External Info

Subtitles | Trailer | Wikipedia | Other Info

Internal Files

AVP2 (2007) Requiem
AlienvsPredator2_Requiem(2007).DvdRip.XviD.avi   1.06 GB
Sample.avi   21.88 MB

Hash Code

fc5158cad9c505cfe2d045d6c57869338bb97460

Description



Alien vs Preadator 2_Requiem [2007].DvdRip.XviD.(.avi)


100% Clean, Tested & Working

-----------------------------------------------------------------------------

Storyline:
---------
A little town in the hills of Colorado will become the battleground between two of the deadliest extra-terrestrial lifeforms - the Alien and the Predator. When a Predator scout ship crash-lands in the hills outside the town, Alien facehuggers are released in the crash, and an even more evil creature - a hybrid Alien/Predator - is also released. A man & his son hunting in the forests near the crash site soon become the first victims of the facehuggers, and when a Predator receives data about the crash on his home planet, he comes to Earth. One at a time, the inhabitants of the town become targets of the Aliens and the Predator, including the local sheriff, a young female soldier recently returned from Iraq, and several teens. Though the National Guard is called in, they are unable to stop the deadly creatures, and a plan is set in motion to destroy the town with a nuclear device...


Cast:
----
Steven Pasquale............Dallas
Reiko Aylesworth...........Kelly
John Ortiz.................Morales
Johnny Lewis...............Ricky
Ariel Gade.................Molly
Kristen Hager..............Jesse
Sam Trammell...............Tim
Robert Joy.................Col. Stevens
David Paetkau..............Dale
Tom Woodruff Jr............Alien
Ian Whyte..................Predator
Chelah Horsdal.............Darcy
Meshach Peters.............Curtis
Matt Ward..................Mark
Michal Suchánek............Nick (as Michal Suchanek)


Video Details:
-------------
Format : AVI
Format/Info : Audio Video Interleave
File size : 1.06 GiB
Duration : 1h 36mn
Overall bit rate : 1 562 Kbps
Writing application : VirtualDubMod 1.5.4.1 (build 2178/release)
Writing library : VirtualDubMod build 2178/release


Video:
-----
Format : MPEG-4 Visual
Format profile : Advanced Simple@L5
Format settings, BVOP : Yes
Format settings, QPel : No
Format settings, GMC : No warppoints
Format settings, Matrix : Custom
Codec ID : XVID
Codec ID/Hint : XviD
Duration : 1h 36mn
Bit rate : 1 107 Kbps
Width : 720 pixels
Height : 304 pixels
Display aspect ratio : 2.35:1
Frame rate : 25.000 fps
Color space : YUV
Chroma subsampling : 4:2:0
Bit depth : 8 bits
Scan type : Progressive
Bits/(Pixel*Frame) : 0.202
Stream size : 767 MiB (71%)
Writing library : XviD 58


Audio:
-----
Format : AC-3
Format/Info : Audio Coding 3
Mode extension : CM (complete main)
Codec ID : 2000
Duration : 1h 36mn
Bit rate mode : Constant
Bit rate : 448 Kbps
Channel(s) : 6 channels
Channel positions : Front: L C R, Side: L R, LFE
Sampling rate : 48.0 KHz
Bit depth : 16 bits
Stream size : 311 MiB (29%)
Alignment : Aligned on interleaves
Interleave, duration : 96 ms (2.40 video frames)
Interleave, preload duration : 96 ms

-----------------------------------------------------------------------------


*Remember To Seed



*HAVE FUN AND ENJOY*

Trackers

Updated 2 years ago

1. http://tracker.thepiratebay.org/announce

2. udp://tracker.thepiratebay.org:80/announce

3. udp://tracker.openbittorrent.com:80/announce

4. udp://tracker.istole.it:80/announce

5. http://tracker.istole.it/announce

6. udp://tracker.publicbt.com:80/announce

7. http://tracker.publicbt.com/announce

8. http://tracker.publicbt.org/announce

9. http://10.rarbg.com/announce

10. http://nyaatorrents.info:3277/announce

11. http://exodus.desync.com:6969/announce

12. http://bt1.the9.com:6969/announce

13. http://torrent-download.to:5869/announce.php

14. http://genesis.1337x.org:1337/announce

15. http://nemesis.1337x.org/announce

Comments

You must log in to add a comment.

Embed Code

Sharing Widget

Related torrents

FILENAME SIZE SEEDS PEERS ADDED UPD
[i] Alien vs Predator Requiem Unrated ITA ENG AC3 BDRip 1080p X265 ZMachine
posted by ZMachine95 in Movies - Fantasy
2.14 GB 72 201 4 weeks 1 week
[i] Alien vs Predator Unrated ITA ENG AC3 BDRip 1080p X265 ZMachine
posted by ZMachine95 in Movies - Fantasy
2.7 GB 34 139 4 weeks 1 week
[i] AVP Alien vs Predator [UNRATED] (2004) BRRip 720p x264 [Dual Audio][BD 448 Kbps] [Hindi 5.1+English 5.1]--prisak~~{HKRG} 2.08 GB 32 55 3 months 2 months
[i] Alien vs. Predator - Requiem*2007* (Theatrical Cut)[mini-HD.1080p.Dual audio.AC3.BluRay.x264-LEON 345] [Lektor i Napisy PL] 3.84 GB 27 44 2 weeks 1 week
[i] Alien vs. Predator *2004* (Unrated)[mini-HD.1080p.Dual audio.AC3.BluRay.x264-LEON 345] [Lektor i Napisy PL] 3.99 GB 17 23 2 weeks 1 week
[i] Alien Predator COMPLETE Collection BDRip XviD AC3-RARBG 19.6 GB 6 7 5 months 2 weeks
[i] Alien.Vs.Predator.Requiem-Pt Br 585.3 MB 3 0 1 year 1 year
[i] AVP Alien vs Predator [UNRATED] (2004) BRRip 720p x264 [Dual Audio][Hindi BD5 1+English2ch] {Rboy}~PimpRG~
posted by deven101 in Movies - Action
1.02 GB 3 1 3 months 2 months
[i] Alien Vs Predator Requiem 2 (2007) BRRip 720p [DD5 1 ORG][Dual Audio][Eng-Hindi]{Rboy}
posted by deven101 in Movies - Action
2.01 GB 3 16 1 month 2 weeks
[i] Alien Vs Predator Requiem 2 (2007) BRRip 720p [6Ch][Dual Audio][Eng-Hindi]~MEGUIL 1.75 GB 2 5 3 years 1 year

Top Movies ( auto generated report )

FILENAME SIZE SEEDS PEERS ADDED UPD
[i] The Physician (2013) 720p BrRip x264 - YIFY
Movies - Drama , Quality: Audio 9/10 - Video 9/10
990.5 MB 12614 3757 3 days 5 hours
[i] Wolf Creek 2 (2013) HDRip Xvid Ac3-XYZ [P2PDL
Movies - Horror , Quality: Audio 7/10 - Video 7/10
1.24 GB 7382 7240 1 day 10 hours
[i] 2 States (2014) - DVDScr - Xvid - 1CD - Team M2TV
Movies - Romance , Quality: Audio 7/10 - Video 7/10
701.07 MB 5953 16105 1 day 1 day
[i] Son of Batman 2014 FRENCH BRRiP XviD-CARPEDIEM. 701.07 MB 4211 2691 9 hours 9 hours
[i] The Art of the Steal (2013) 1080p BrRip x264 - YIFY
Movies - Comedy , Quality: Audio 9/10 - Video 9/10
1.24 GB 3765 1584 3 days 1 day
[i] The Railway Man (2013) 1080p BrRip x264 - YIFY 1.84 GB 3157 2370 1 day 9 hours
[i] The Physician (2013) 1080p BrRip x264 - YIFY
Movies - Adventure , Quality: Audio 9/10 - Video 9/10
2.05 GB 3097 2356 4 days 2 days
[i] Khumba (2013) 1080p BrRip x264 - YIFY
Movies - Animation , Quality: Audio 9/10 - Video 9/10
1.24 GB 2379 4491 13 hours 10 hours
[i] 2 States (2014) 720p DVDScr Rip x264 AAC raJonbOy 1.23 GB 2372 5693 1 day 9 hours
[i] Devil's Due (2014) 1080p BrRip x264 - YIFY
Movies - Horror , Quality: Audio 9/10 - Video 9/10
1.23 GB 2318 880 3 days 1 day