Bit Torrent Scene a public file sharing platform Home Upload Categories Collections Blog About

Alien vs Predator 2_Requiem [2007].DvdRip.XviD.(.avi)

DOWNLOAD TORRENT

Posted on January 23, 2011 in Movies » Misc , downloaded 21 times

Size: 1.08 GB , Seeds: 25 , Peers: 5 ( Updated January 22, 2012 - Refresh )

* Download via Magnet Link

* To download files you need a Bittorrent Client , * How to download torrents from Bit Torrent Scene?

advertising ( remove )

External Info

Subtitles | Trailer | Wikipedia | Other Info

Internal Files

AVP2 (2007) Requiem
AlienvsPredator2_Requiem(2007).DvdRip.XviD.avi   1.06 GB
Sample.avi   21.88 MB

Hash Code

fc5158cad9c505cfe2d045d6c57869338bb97460

Description



Alien vs Preadator 2_Requiem [2007].DvdRip.XviD.(.avi)


100% Clean, Tested & Working

-----------------------------------------------------------------------------

Storyline:
---------
A little town in the hills of Colorado will become the battleground between two of the deadliest extra-terrestrial lifeforms - the Alien and the Predator. When a Predator scout ship crash-lands in the hills outside the town, Alien facehuggers are released in the crash, and an even more evil creature - a hybrid Alien/Predator - is also released. A man & his son hunting in the forests near the crash site soon become the first victims of the facehuggers, and when a Predator receives data about the crash on his home planet, he comes to Earth. One at a time, the inhabitants of the town become targets of the Aliens and the Predator, including the local sheriff, a young female soldier recently returned from Iraq, and several teens. Though the National Guard is called in, they are unable to stop the deadly creatures, and a plan is set in motion to destroy the town with a nuclear device...


Cast:
----
Steven Pasquale............Dallas
Reiko Aylesworth...........Kelly
John Ortiz.................Morales
Johnny Lewis...............Ricky
Ariel Gade.................Molly
Kristen Hager..............Jesse
Sam Trammell...............Tim
Robert Joy.................Col. Stevens
David Paetkau..............Dale
Tom Woodruff Jr............Alien
Ian Whyte..................Predator
Chelah Horsdal.............Darcy
Meshach Peters.............Curtis
Matt Ward..................Mark
Michal Suchánek............Nick (as Michal Suchanek)


Video Details:
-------------
Format : AVI
Format/Info : Audio Video Interleave
File size : 1.06 GiB
Duration : 1h 36mn
Overall bit rate : 1 562 Kbps
Writing application : VirtualDubMod 1.5.4.1 (build 2178/release)
Writing library : VirtualDubMod build 2178/release


Video:
-----
Format : MPEG-4 Visual
Format profile : Advanced Simple@L5
Format settings, BVOP : Yes
Format settings, QPel : No
Format settings, GMC : No warppoints
Format settings, Matrix : Custom
Codec ID : XVID
Codec ID/Hint : XviD
Duration : 1h 36mn
Bit rate : 1 107 Kbps
Width : 720 pixels
Height : 304 pixels
Display aspect ratio : 2.35:1
Frame rate : 25.000 fps
Color space : YUV
Chroma subsampling : 4:2:0
Bit depth : 8 bits
Scan type : Progressive
Bits/(Pixel*Frame) : 0.202
Stream size : 767 MiB (71%)
Writing library : XviD 58


Audio:
-----
Format : AC-3
Format/Info : Audio Coding 3
Mode extension : CM (complete main)
Codec ID : 2000
Duration : 1h 36mn
Bit rate mode : Constant
Bit rate : 448 Kbps
Channel(s) : 6 channels
Channel positions : Front: L C R, Side: L R, LFE
Sampling rate : 48.0 KHz
Bit depth : 16 bits
Stream size : 311 MiB (29%)
Alignment : Aligned on interleaves
Interleave, duration : 96 ms (2.40 video frames)
Interleave, preload duration : 96 ms

-----------------------------------------------------------------------------


*Remember To Seed



*HAVE FUN AND ENJOY*

Trackers

Refresh Leechers : Updated January 22, 2012

1. http://tracker.thepiratebay.org/announce

2. udp://tracker.thepiratebay.org:80/announce

3. udp://tracker.openbittorrent.com:80/announce

4. udp://tracker.istole.it:80/announce

5. http://tracker.istole.it/announce

6. udp://tracker.publicbt.com:80/announce

7. http://tracker.publicbt.com/announce

8. http://tracker.publicbt.org/announce

9. http://10.rarbg.com/announce

10. http://nyaatorrents.info:3277/announce

11. http://exodus.desync.com:6969/announce

12. http://bt1.the9.com:6969/announce

13. http://torrent-download.to:5869/announce.php

14. http://genesis.1337x.org:1337/announce

15. http://nemesis.1337x.org/announce

Comments

You must log in to add a comment.

Embed Code

Sharing Widget

Related torrents

FILENAME SIZE SEEDS PEERS ADDED UPD
[i]
[i]
ALIEN vs PREDATOR 2004 DVDRip XviD-DiNGiE(Kingdom Release)
703.3 MB 47 4 4 years 2 days
[i] Alien vs Predator Requiem Unrated ITA ENG AC3 BDRip 1080p X265 ZMachine
posted by ZMachine95 in Movies - Fantasy
2.14 GB 33 10 4 months 1 month
[i] AVP Alien vs Predator 2004 720p BRRip x264 MP4 Multisubs AAC-CC
posted by Cavemania in Movies - Action
2.26 GB 30 44 2 days 1 day
[i] AVP.Alien.vs.Predator.2004.UNRATED.720p.BluRay.x264.DTS-KiNGS [P 5.55 GB 13 2 1 year 2 days
[i] Alien vs Predator Unrated ITA ENG AC3 BDRip 1080p X265 ZMachine
posted by ZMachine95 in Movies - Fantasy
2.7 GB 7 7 4 months 1 month
[i] Alien vs. Predator - Requiem*2007* (Theatrical Cut)[mini-HD.1080p.Dual audio.AC3.BluRay.x264-LEON 345] [Lektor i Napisy PL] 3.84 GB 7 4 3 months 2 weeks
[i] Alien Predator COMPLETE Collection BDRip XviD AC3-RARBG 19.6 GB 6 7 9 months 4 months
[i] Alien Vs Predator 2 Requiem (2007) BRRip 720p [English 5 1] E-Subs x264--RickyKT SilverRG
posted by RickyKT in Movies - Action
777.26 MB 5 3 1 year 1 month
[i] AVP Alien vs Predator [UNRATED] (2004) BRRip 720p x264 [Dual Audio][BD 448 Kbps] [Hindi 5.1+English 5.1]--prisak~~{HKRG} 2.08 GB 5 5 6 months 2 days
[i] Alien vs. Predator *2004* (Unrated)[mini-HD.1080p.Dual audio.AC3.BluRay.x264-LEON 345] [Lektor i Napisy PL] 3.99 GB 5 1 3 months 2 days

Top Movies ( auto generated report )

FILENAME SIZE SEEDS PEERS ADDED UPD
[i] Captain America The Winter Soldier 2014 DVDRip XviD AC3-RARBG
Movies - Action , Quality: Audio 8/10 - Video 8/10
2.29 GB 21569 18708 2 days 1 day
[i] Batman Assault on Arkham 2014 HDRip XviD AC3-EVO
Movies - Animation , Quality: Audio 9/10 - Video 9/10
1.14 GB 13694 11377 2 days 1 day
[i] Captain America The Winter Soldier (2014) 720p BrRip x264 - YIFY
Movies - Action , Quality: Audio 9/10 - Video 9/10
932.5 MB 13155 43794 20 hours 15 hours
[i] Fading Gigolo (2013) 720p BrRip x264 - YIFY
Movies - Comedy , Quality: Audio 9/10 - Video 9/10
706.5 MB 9158 4648 1 day 19 hours
[i] Draft Day 2014 720p HDRip x264 AC3-JYK
Movies - Drama , Quality: Audio 9/10 - Video 9/10
2.26 GB 6615 9199 3 days 2 days
[i] A Haunted House 2 (2014) 720p BrRip x264 - YIFY
Movies - Comedy , Quality: Audio 9/10 - Video 9/10
704.5 MB 5312 3226 2 days 1 day
[i] Captain America The Winter Soldier (2014) DVDRip XviD-MAXSPEED
Movies - Action , Quality: Audio 9/10 - Video 9/10
1.67 GB 5079 6541 2 days 1 day
[i] A.Haunted.House.2.2014.HDRip.XViD.juggs[ETRG]
Movies - Comedy , Quality: Audio 9/10 - Video 9/10
710.32 MB 4965 5779 3 days 2 days
[i] A Haunted House 2 (2014) 1080p BrRip x264 - YIFY
Movies - Comedy , Quality: Audio 9/10 - Video 9/10
1.24 GB 4325 2827 1 day 1 day
[i] Draft.Day.2014.HDRip.XViD.AC3-juggs[ETRG]
Movies - Drama , Quality: Audio 9/10 - Video 9/10
1.41 GB 3575 5045 3 days 2 days