Bit Torrent Scene a public file sharing platform Home Upload Categories Collections Blog About

Angels and Demons [Extended Cut] (2009) BRRip 720P (Eng+Hindi) (6CH-Ac3)-nsh168810

DOWNLOAD TORRENT

Posted on August 6, 2011 in Movies » Misc , downloaded 157 times , verified torrent

Size: 2.26 GB , Seeds: 1 , Peers: 5 ( Updated August 19, 2014 - Refresh )

* Download via Magnet Link

* To download files you need a Bittorrent Client , * How to download torrents from Bit Torrent Scene?

advertising ( remove )

External Info

Subtitles | Trailer | Wikipedia | Other Info

Internal Files

Angels and Demons [Extended Cut] (2009) BRRip 720P (Eng+Hindi) (6CH-Ac3)-nsh168810
SAMPLE_Angels and Demons [Extended Cut] (2009) BRRip 720P (Eng+Hindi) (6CH-Ac3)-nsh168810.mkv   15.54 MB
Angels.and.Demons.2009.EXTENDED.BluRay (1)-001.mkv_snapshot_02.26_[2011.08.05_20.36.14].jpg   160.81 KB
Angels.and.Demons.2009.EXTENDED.BluRay (1)-002 (1) (1)-002.mkv_snapshot_00.33.33_[2011.08.05_20.47.20].jpg   96.67 KB
Angels.and.Demons.2009.EXTENDED.BluRay (1)-002 (1) (1)-002.mkv_snapshot_00.23.38_[2011.08.05_20.38.05].jpg   90.6 KB
Angels.and.Demons.2009.EXTENDED.BluRay (1)-002 (1) (1)-002.mkv_snapshot_00.15.27_[2011.08.05_20.46.42].jpg   84.63 KB
Angels.and.Demons.2009.EXTENDED.BluRay (1)-001.mkv_snapshot_05.00_[2011.08.05_20.36.43].jpg   75.93 KB
Angels.and.Demons.2009.EXTENDED.BluRay (1)-002 (1) (1)-002.mkv_snapshot_00.19.17_[2011.08.05_20.37.48].jpg   74.36 KB
Angels.and.Demons.2009.EXTENDED.BluRay (1)-002 (1) (1)-002.mkv_snapshot_01.45.44_[2011.08.05_20.43.04].jpg   62.63 KB
Angels and Demons [Extended Cut] (2009) BRRip 720P (Eng+Hindi) (6CH-Ac3)-nsh168810.mkv   2.24 GB
Angels & Demons Eng.srt   108.85 KB
info.txt   5.58 KB
JOIN IN FACE BOOK N ORKUT..txt   695 Byte

Hash Code

60a677b952d2264b8967572b9fda3ff1efc87b12

Description









nsh168810

















Release Title: Angels and Demons 2009

Release Date: 29 August 2009

Size: 2.24 GiB

Duration: 2h 26mn

Genre: Drama | Mystery | Thriller

Language: English + Hindi





Storyline:

Despite his notorious relationship with the Church, Harvard symbologist Robert Langdon is once again

called upon to decipher the clues to a catastrophic conspiracy. The Pope has died, and before conclave can begin to determine his successor,

the four preferitti (primary hopefuls for the papacy) are kidnapped. An ominous threat of their hourly demise, along with the complete

annihilation of Vatican City, is issued as an elaborate revenge scheme for a persecuted group known as the Illuminati. With their meager time

limit steadily counting down, Langdon, accompanied by beautiful physicist Vittoria Vetra, must travel throughout Rome to unravel the carefully

hidden signs that will lead them to a terrifying adversary, a harrowing discovery, and the shocking truth.









Tom Hanks ... Robert Langdon

Ewan McGregor ... Camerlengo Patrick McKenna

Ayelet Zurer ... Vittoria Vetra

Stellan Skarsgård ... Commander Richter

Pierfrancesco Favino ... Inspector Olivetti

Nikolaj Lie Kaas ... Assassin

Armin Mueller-Stahl ... Cardinal Strauss

Thure Lindhardt ... Chartrand

David Pasquesi ... Claudio Vincenzi

Cosimo Fusco ... Father Simeon

Victor Alfieri ... Lieutenant Valenti

Franklin Amobi ... Cardinal Lamasse

Curt Lowens ... Cardinal Ebner

Bob Yerkes ... Cardinal Guidera

Marc Fiorini ... Cardinal Baggia (as Marco Fiorini)











Complete name                    : Angels and Demons [Extended Cut] (2009) BRRip 720P (Eng+Hindi) (6CH-Ac3)-nsh168810.mkv

Format                           : Matroska

File size                        : 2.24 GiB

Duration                         : 2h 26mn

Overall bit rate                 : 2 186 Kbps











http://www.imdb.com/title/tt0808151/











Video

ID                               : 1

Format                           : AVC

Format/Info                      : Advanced Video Codec

Format profile                   : High@L4.1

Format settings, CABAC           : Yes

Format settings, ReFrames        : 6 frames

Muxing mode                      : Header stripping

Codec ID                         : V_MPEG4/ISO/AVC

Duration                         : 2h 26mn

Bit rate                         : 1 550 Kbps

Width                            : 1 280 pixels

Height                           : 534 pixels

Display aspect ratio             : 2.35:1

Frame rate                       : 23.976 fps

Color space                      : YUV

Chroma subsampling               : 4:2:0

Bit depth                        : 8 bits

Scan type                        : Progressive

Bits/(Pixel*Frame)               : 0.095

Stream size                      : 1.54 GiB (69%)









Audio #1

ID                               : 2

Format                           : AC-3

Format/Info                      : Audio Coding 3

Mode extension                   : CM (complete main)

Muxing mode                      : Header stripping

Codec ID                         : A_AC3

Duration                         : 2h 26mn

Bit rate mode                    : Constant

Bit rate                         : 320 Kbps

Channel(s)                       : 6 channels

Channel positions                : Front: L C R, Side: L R, LFE

Sampling rate                    : 48.0 KHz

Bit depth                        : 16 bits

Compression mode                 : Lossy

Stream size                      : 336 MiB (15%)

Title                            : nsh168810 (6CH)

Language                         : Hindi





Hindi Audio is 5.1-Ac3 from original DVD









Audio #2

ID                               : 3

Format                           : AC-3

Format/Info                      : Audio Coding 3

Mode extension                   : CM (complete main)

Muxing mode                      : Header stripping

Codec ID                         : A_AC3

Duration                         : 2h 26mn

Bit rate mode                    : Constant

Bit rate                         : 320 Kbps

Channel(s)                       : 6 channels

Channel positions                : Front: L C R, Side: L R, LFE

Sampling rate                    : 48.0 KHz

Bit depth                        : 16 bits

Compression mode                 : Lossy

Stream size                      : 336 MiB (15%)

Title                            : 6CH

Language                         : English

























































SEED PLEASE.....





Sample Included.....












Scrape History ( seeds + peers )

Trackers

Refresh Leechers : Updated August 19, 2014

1. http://10.rarbg.com/announce

2. http://pow7.com/announce

3. http://pow7.com:80/announce

4. http://exodus.1337x.org/announce

5. http://genesis.1337x.org:1337/announce

6. http://exodus.1337x.org:1337/announce

7. http://nemesis.1337x.org/announce

8. http://tracker.publicbt.com/announce

9. http://fr33dom.h33t.com:3310/announce

10. http://tracker.publicbt.com:80/announce

11. http://tracker.istole.it/announce

12. http://nyaatorrents.info:3277/announce

13. http://tracker.csze.com/announce

14. http://tracker.csze.com:80/announce

15. http://tracker.torrentbay.to:6969/announce

Comments

You must log in to add a comment.

Embed Code

Sharing Widget

Related torrents

FILENAME SIZE SEEDS PEERS ADDED UPD
[i] Angels and Demons Extended Cut 2009 720p BRRip x264-PLAYNOW 1.45 GB 142 22 1 year 1 month
[i] Angels & Demons Extended Cut 2009 BRRip H264 AAC-SecretMyth (Kingdom-Release) 2.24 GB 8 6 5 years 2 years
[i] Angels and Demons [Extended Cut] (2009) BRRip 720p x264 [Multi Audio] [BD 640 Kbps][Hindi 5.1+English 5.1+Tamil 5.1+Telugu 5.1]--prisak~~{HKRG} 3.86 GB 5 15 9 months 4 months
[i] The Da Vinci Code - Angels & Demons Duology BRRip 1080p x264 AAC - honchorella (Kingdom Release) 7.42 GB 4 4 3 years 2 months
[i] Angels And Demons 2009 Extended Cut * 1GB * BRRip XviD AC3 * M777 M2Tv 1021.3 MB 0 0 3 years 2 months
[i] Angels and Demons (2009) Extended Cut -=BRRip~720p~x264~AC3=-~Multi 6Ch Audio~Hindi-Telgu-Tamil-Eng~ XMR-ExD 2.49 GB 0 1 7 months 1 month

Top Movies ( auto generated report )

FILENAME SIZE SEEDS PEERS ADDED UPD
[i] 22.Jump.Street.2014.FRENCH.TS.MD.XviD-SHiFT 1.68 GB 7289 3522 1 day 12 hours
[i] Step.Up.All.In.2014.FRENCH.TS.MD.XviD-SHiFT
Movies - Drama , Quality: Audio 6/10 - Video 6/10
1.36 GB 6929 3591 1 day 16 hours
[i] RAJA NATWARLAL (2014) - 1CD - DVDSCR-Rip - Hindi - x264 - MP3 - TEAMTNT EXCLUSIVE
Movies - Drama , Quality: Audio 6/10 - Video 6/10
707.98 MB 6798 9048 1 day 12 hours
[i] A.Million.Ways.to.Die.in.the.West.2014.HDRip.XViD.AC3-juggs[ETRG
Movies - Comedy , Quality: Audio 9/10 - Video 9/10
1.4 GB 6360 7905 21 hours 3 hours
[i] Life of Crime 2013 HDRip XViD AC3-juggs[ETRG]
Movies - Comedy , Quality: Audio 9/10 - Video 9/10
1.39 GB 5827 4023 1 day 3 hours
[i] Raze.2014.FRENCH.DVDRip.XviD-SVR 786.07 MB 5230 1198 16 hours 3 hours
[i] Barbecue.2014.FRENCH.BRRip.XviD-SVR 809.32 MB 3904 1741 9 hours 7 hours
[i] The.Two.Faces.Of.January.2014.FRENCH.DVDSCR.MD.XviD-SHiFT 1.16 GB 3246 1330 1 day 12 hours
[i] Afrik.Aioli.2013.FRENCH.DVDRip.XviD-UTT 701.07 MB 2855 611 16 hours 3 hours
[i] Hercules.2014.TRUEFRENCH.CAM.MD.XviD-SHiFT 1.01 GB 2723 2183 9 hours 7 hours