Bit Torrent Scene a public file sharing platform Home Upload Categories Collections Blog About

Desi Girl Homemade xXx Hindi Scandal With BF@Mastitorrents

DOWNLOAD TORRENT

Posted on June 22, 2010 in Misc » Others , downloaded 213 times

Size: 30.45 MB , Seeds: 1 , Peers: 1 ( Updated February 3, 2014 - Refresh )

* Download via Magnet Link

* To download files you need a Bittorrent Client , * How to download torrents from Bit Torrent Scene?

advertising ( remove )

External Info

Trailer | Wikipedia | Other Info

Internal Files

desigirll
desigirl.avi   30.16 MB
desigirl.avi_thumbs_[2010.06.22_07.45.23].jpg   276.96 KB

Hash Code

99ed12d24f21a7ab46b48dc6009972507c8212dd

Description


mastitorrents.com
http://mastitorrents.com/forums/index.php


General

Format : AVI
Format/Info : Audio Video Interleave
File size : 30.2 MiB
Duration : 7mn 7s
Overall bit rate : 591 Kbps
Writing application : Lavf52.13.0

Video
Format : S-Mpeg 4 v2
Codec ID : MP42
Codec ID/Info : Microsoft MPEG-4 V2
Duration : 7mn 7s
Bit rate : 482 Kbps
Width : 176 pixels
Height : 144 pixels
Display aspect ratio : 1.222
Frame rate : 29.970 fps
Resolution : 24 bits
Bits/(Pixel*Frame) : 0.635
Stream size : 24.6 MiB (81%)

Audio
ID : 1
Format : MPEG Audio
Format version : Version 1
Format profile : Layer 3
Format_Settings_Mode : Joint stereo / MS Stereo
Codec ID : 55
Codec ID/Hint : MP3
Duration : 7mn 7s
Bit rate mode : Constant
Bit rate : 96.0 Kbps
Channel(s) : 2 channels
Sampling rate : 44.1 KHz
Resolution : 16 bits
Stream size : 4.90 MiB (16%)
Alignment : Aligned on interleaves
Interleave, duration : 26 ms (0.78 video frame)

Scrape History ( seeds + peers )

Trackers

Refresh Leechers : Updated February 3, 2014

1. http://tracker.thepiratebay.org/announce

2. udp://tracker.thepiratebay.org:80/announce

3. http://www.mastitorrents.com:30303/000058c9a8c15b5bb64a07c807ba0aa5/announce

4. http://tracker.istole.it:80/announce

5. http://11.rarbg.com:80/announce

6. http://10.rarbg.com:80/announce

7. http://photodiode.mine.nu/announce

8. http://pow7.com:80/announce

9. udp://denis.stalker.h3q.com:6969/announce

10. http://denis.stalker.h3q.com:6969/announce

11. http://tracker.publicbt.com/announce

12. udp://tracker.publicbt.com:80/announce

13. udp://tracker.openbittorrent.com:80/announce

14. http://tracker.openbittorrent.com/announce

Comments

You must log in to add a comment.

Embed Code

Sharing Widget

Related torrents

FILENAME SIZE SEEDS PEERS ADDED UPD
[i] Indian Desi - Indian Shy Girl Fucked Homemade In Tamil 119.91 MB 129 26 1 year 1 year
[i] *NEW* Desi Skinny College Virgin Girl Cries in Pain while Inserting Dick - Homemade Scandal 15min =XXX-BaBa= 113.29 MB 35 8 1 month 3 weeks
[i] Beautiful Indian Desi Girl Fucked In Bathroom & More Hot Recent Homemade Scandals-Runtime 27 Min 170.41 MB 26 8 2 months 2 days
[i] Indian Desi College Girl Full Scandal + Desi Girl Enjoing With Her Friends in Hotel-Homemade Full Video 138.41 MB 9 1 1 month 3 weeks
[i] Indian Desi Girl Fucked In Car And Married Couple Homemade Sex Tape Leaked With Audio (39 Min) 284.65 MB 8 2 7 months 1 month
[i] Indian Desi - Naina and Vikki (A party girl) HomeMade Porn 76.06 MB 6 1 11 months 5 months
[i] Homemade.Amateur.British.Girl.Fucked.by.Desi.Guy 103.81 MB 4 1 7 months 1 month
[i] Very Old Classic Desi Homemade Scandal Of Cute Bangladeshi Girl With Clear Audio (33 Min) 261.65 MB 4 2 1 month 3 weeks
[i] Very Sexy Desi Teen Girl Like Hard Homemade Fuck 357.15 MB 2 0 1 year 3 weeks
[i] Sexy Desi Teen Girl Like Hard Homemade Fuck.avi 356.82 MB 2 1 1 year 3 weeks

Top Misc ( auto generated report )

FILENAME SIZE SEEDS PEERS ADDED UPD
[i] 100th Anniversary Special - Guardians of the Galaxy 001 (2014) ( 34.27 MB 371 133 7 hours 4 hours
[i] Sunny Leone Unseen Hot & Sexy Pics Collection (PornStar-Actress) [Part-1] 10.36 MB 119 15 1 day 4 hours
[i] 40 Stunning Sunsets and Sunrises HD Wallpapers 2560x1600 [Set 3] 111.54 MB 75 21 1 day 1 day
[i] Bianca Beauchamp - Wet Lust - HD 99 22.67 MB 61 13 3 days 2 days
[i] 40 Amazing Landscapes Widescreen Wallpapers 1920 X 1200 [Set 4] 34.14 MB 60 15 2 days 1 day
[i] Katrina Kaif - Hot Images Collection (BollyWood Actress ) # 1 7.91 MB 59 20 1 day 15 hours
[i] WWE Super Hot Divas HD PIcs- Trish Stratus & Torrie Wilson [Pack-1] 6.63 MB 56 9 1 day 7 hours
[i] 100 Impressive Trey Ratcliff HDR Wallpapers 1920 X 1080 [Set 11] 66.04 MB 52 15 1 day 23 hours
[i] Bianca Beauchamp - Rubber Girlfriends - HD 100 26.54 MB 51 19 3 days 2 days
[i] Pluralsight - Linux Command Line Interface (CLI) Fundamentals 572.82 MB 110 102 1 day 2 hours