Home Upload Categories Collections Blog About

Desi Girl Homemade xXx Hindi Scandal With BF@Mastitorrents

DOWNLOAD TORRENT

Posted 3 years ago in Misc » Others , downloaded 212 times

Size: 30.45 MB , Seeds: 1 , Peers: 1

Refresh Leechers : Updated 2 months ago

* Download via Magnet Link , * Anonymous Download with Torrent Privacy

* To download files you need a Bittorrent Client , * How to download torrents from BitTorrentScene?

advertising ( remove )

Scrape History ( seeds + peers )

External Info

Trailer | Wikipedia | Other Info

Internal Files

desigirll
desigirl.avi   30.16 MB
desigirl.avi_thumbs_[2010.06.22_07.45.23].jpg   276.96 KB

Hash Code

99ed12d24f21a7ab46b48dc6009972507c8212dd

Description


mastitorrents.com
http://mastitorrents.com/forums/index.php


General

Format : AVI
Format/Info : Audio Video Interleave
File size : 30.2 MiB
Duration : 7mn 7s
Overall bit rate : 591 Kbps
Writing application : Lavf52.13.0

Video
Format : S-Mpeg 4 v2
Codec ID : MP42
Codec ID/Info : Microsoft MPEG-4 V2
Duration : 7mn 7s
Bit rate : 482 Kbps
Width : 176 pixels
Height : 144 pixels
Display aspect ratio : 1.222
Frame rate : 29.970 fps
Resolution : 24 bits
Bits/(Pixel*Frame) : 0.635
Stream size : 24.6 MiB (81%)

Audio
ID : 1
Format : MPEG Audio
Format version : Version 1
Format profile : Layer 3
Format_Settings_Mode : Joint stereo / MS Stereo
Codec ID : 55
Codec ID/Hint : MP3
Duration : 7mn 7s
Bit rate mode : Constant
Bit rate : 96.0 Kbps
Channel(s) : 2 channels
Sampling rate : 44.1 KHz
Resolution : 16 bits
Stream size : 4.90 MiB (16%)
Alignment : Aligned on interleaves
Interleave, duration : 26 ms (0.78 video frame)

Trackers

Refresh Leechers : Updated 2 months ago

1. http://tracker.thepiratebay.org/announce

2. udp://tracker.thepiratebay.org:80/announce

3. http://www.mastitorrents.com:30303/000058c9a8c15b5bb64a07c807ba0aa5/announce

4. http://tracker.istole.it:80/announce

5. http://11.rarbg.com:80/announce

6. http://10.rarbg.com:80/announce

7. http://photodiode.mine.nu/announce

8. http://pow7.com:80/announce

9. udp://denis.stalker.h3q.com:6969/announce

10. http://denis.stalker.h3q.com:6969/announce

11. http://tracker.publicbt.com/announce

12. udp://tracker.publicbt.com:80/announce

13. udp://tracker.openbittorrent.com:80/announce

14. http://tracker.openbittorrent.com/announce

Comments

You must log in to add a comment.

Embed Code

Sharing Widget

Related torrents

FILENAME SIZE SEEDS PEERS ADDED UPD
[i] Indian Desi - Indian Shy Girl Fucked Homemade In Tamil 119.91 MB 129 26 1 year 1 year
[i] Indian Desi Girl Fucked In Car And Married Couple Homemade Sex Tape Leaked With Audio (39 Min) 284.65 MB 37 12 4 months 3 months
[i] Indian Desi Girl Homemade Sex Video
posted by bboomindia in Porn - Movies
106.14 MB 17 4 2 weeks 1 week
[i] Homemade.Amateur.British.Girl.Fucked.by.Desi.Guy 103.81 MB 8 1 4 months 3 months
[i] Indian Desi - Naina and Vikki (A party girl) HomeMade Porn 76.06 MB 6 1 7 months 2 months
[i] Homemade.Amateur.British.Girl.Fucked.by.Desi.Guy 103.81 MB 4 1 4 months 3 months
[i] Very Sexy Desi Teen Girl Like Hard Homemade Fuck 357.15 MB 3 2 9 months 4 months
[i] Desi girl masterbating New Homemade MMS Scandal 43.03 MB 2 1 1 year 1 year
[i] Sexy Desi Teen Girl Like Hard Homemade Fuck.avi 356.82 MB 2 0 9 months 4 months

Top Misc ( auto generated report )

FILENAME SIZE SEEDS PEERS ADDED UPD
[i] Game of Thrones S04E03 HDTV x264-KILLERS English Subtitle 66.4 KB 175 15 1 day 1 day
[i] Desktop Wallpapers - Erotic wallpaper [1050x1680-5600x8960] [226 pics.] (2014) JPG 200.57 MB 151 36 2 days 2 days
[i] DC Universe 52 Week 139 (4/23/2014) (darkhomr) {EXT} 522.3 MB 133 192 18 hours 18 hours
[i] Desktop Wallpapers - Mix [1050x1680-4504x6000] [262 pics.] (2014) JPG 220.32 MB 85 9 2 days 1 hour
[i] Desktop Wallpapers - Miscellaneous [1680X1050-2560X1600] [237 pics] (2014) JPG 233.32 MB 69 52 1 day 1 day
[i] HD Wallpapers Pack 46 [ThumperDC] 208.82 MB 35 48 1 day 1 day
[i] 30 Dreamy Unseen Desktop 3D Super HD Wallpapers { SET 218 } 24.7 MB 34 3 2 days 14 hours
[i] Paul Theroux-The Mosquito Coast 331.82 MB 27 4 3 days 1 day
[i] 30 Mix HD Best Wallpapers Around the World { SET- 12 } 36.27 MB 24 3 2 days 14 hours
[i] Best Paid Android Pack V30 - 21 April 2014 242.07 MB 16 13 1 day 1 day