Bit Torrent Scene a public file sharing platform Home Upload Categories Collections Blog About

Don McKay (2010) HINDI MOVIE DVD RIP DivX AVI - MNAS

DOWNLOAD TORRENT

Posted on May 12, 2010 in Movies » Misc , downloaded 25 times

Size: 696.57 MB , Seeds: 0 , Peers: 0 ( Updated October 1, 2014 - Refresh )

* Download via Magnet Link , * To download files you need a Bittorrent Client , * How to download torrents from Bit Torrent Scene?

advertising ( remove )

External Info

Subtitles | Trailer | Wikipedia | Other Info

Internal Files

Don McKay (2010) HINDI MOVIE DVD RIP DivX AVI - MNAS
Don McKay (2010) HINDI MOVIE DVD RIP DivX AVI - MNAS.avi   696.42 MB
info.txt   1.36 KB

Hash Code

11a57c1d9f4fdd5958265b5f160f316428566dfe

Description


Format : AVI
Format/Info : Audio Video Interleave
Overall bit rate : 1 502 Kbps


Video
ID : 0
Format : MPEG-4 Visual
Format profile : AdvancedSimple[@]L5
Format settings, BVOP : Yes
Format settings, QPel : No
Format settings, GMC : No warppoints
Format settings, Matrix : Default (H.263)
Codec ID : XVID
Codec ID/Hint : XviD
Bit rate : 1 363 Kbps
Width : 608 pixels
Height : 256 pixels
Display aspect ratio : 2.35:1
Frame rate : 25.000 fps
Resolution : 24 bits
Colorimetry : 4:2:0
Scan type : Progressive
Bits/(Pixel*Frame) : 0.350
Stream size : 1.24 GiB (91%)
Writing library : XviD 1.2.1 (UTC 2008-12-04)

Audio
ID : 1
Format : MPEG Audio
Format version : Version 1
Format profile : Layer 3
Codec ID : 55
Codec ID/Hint : MP3
Duration : 2h 10mn
Bit rate mode : Variable
Bit rate : 128 Kbps
Channel(s) : 2 channels
Sampling rate : 48.0 KHz
Resolution : 16 bits
Stream size : 118 MiB (8%)
Alignment : Aligned on interleaves
Interleave, duration : 24 ms (0.60 video frame)
Interleave, preload duration : 231 ms


Scrape History ( seeds + peers )

Trackers

Refresh Leechers : Updated October 1, 2014

1. http://tracker.thepiratebay.org/announce

2. udp://tracker.thepiratebay.org:80/announce

3. http://pow7.com:80/announce

4. http://nemesis.1337x.org/announce

5. http://genesis.1337x.org:1337/announce

6. udp://denis.stalker.h3q.com:6969/announce

7. http://denis.stalker.h3q.com:6969/announce

8. http://tracker.publicbt.com/announce

9. udp://tracker.publicbt.com:80/announce

10. udp://tracker.openbittorrent.com:80/announce

11. http://tracker.openbittorrent.com/announce

Comments

You must log in to add a comment.

Embed Code

Sharing Widget

Top Movies ( auto generated report )

FILENAME SIZE SEEDS PEERS ADDED UPD
[i] Teenage Mutant Ninja Turtles (2014) 720p BrRip x264 - YIFY 806.5 MB 19814 17417 3 days 2 days
[i] Predestination (2014) 720p BrRip x264 - YIFY
Movies - Sci-Fi , Quality: Audio 9/10 - Video 9/10
758.5 MB 19781 14553 4 days 3 days
[i] Teenage Mutant Ninja Turtles (2014) 1080p BrRip x264 - YIFY 1.64 GB 14071 14221 3 days 2 days
[i] The Salvation (2014) 720p BrRip x264 - YIFY 750.5 MB 9510 5926 2 days 1 day
[i] Housebound (2014) 1080p BrRip x264 - YIFY 1.65 GB 8103 4288 4 days 1 day
[i] Predestination (2014) 1080p BrRip x264 - YIFY 1.45 GB 7128 7281 3 days 2 days
[i] The Maze Runner 2014 DVDRip x264 AC3 5.1-JYK 1.82 GB 6748 2924 2 days 1 day
[i] The Boxtrolls 2014 HDRip XViD-juggs[ETRG] 706.57 MB 6634 5176 4 days 3 days
[i] The.Maze.Runner.2014.DVDRip.XviD-EVO 767.82 MB 5101 6742 3 days 2 days
[i] The Salvation (2014) 1080p BrRip x264 - YIFY 1.43 GB 3680 2600 2 days 1 day