Home Upload Categories Collections Blog About

Don McKay (2010) HINDI MOVIE DVD RIP DivX AVI - MNAS

DOWNLOAD TORRENT

Posted 3 years ago in Movies » Misc , downloaded 25 times

Size: 696.57 MB , Seeds: 0 , Peers: 0

Updated 1 year ago

* Download via Magnet Link , * Anonymous Download with Torrent Privacy

* To download files you need a Bittorrent Client , * How to download torrents from BitTorrentScene?

advertising ( remove )

External Info

Subtitles | Trailer | Wikipedia | Other Info

Internal Files

Don McKay (2010) HINDI MOVIE DVD RIP DivX AVI - MNAS
Don McKay (2010) HINDI MOVIE DVD RIP DivX AVI - MNAS.avi   696.42 MB
info.txt   1.36 KB

Hash Code

11a57c1d9f4fdd5958265b5f160f316428566dfe

Description


Format : AVI
Format/Info : Audio Video Interleave
Overall bit rate : 1 502 Kbps


Video
ID : 0
Format : MPEG-4 Visual
Format profile : AdvancedSimple[@]L5
Format settings, BVOP : Yes
Format settings, QPel : No
Format settings, GMC : No warppoints
Format settings, Matrix : Default (H.263)
Codec ID : XVID
Codec ID/Hint : XviD
Bit rate : 1 363 Kbps
Width : 608 pixels
Height : 256 pixels
Display aspect ratio : 2.35:1
Frame rate : 25.000 fps
Resolution : 24 bits
Colorimetry : 4:2:0
Scan type : Progressive
Bits/(Pixel*Frame) : 0.350
Stream size : 1.24 GiB (91%)
Writing library : XviD 1.2.1 (UTC 2008-12-04)

Audio
ID : 1
Format : MPEG Audio
Format version : Version 1
Format profile : Layer 3
Codec ID : 55
Codec ID/Hint : MP3
Duration : 2h 10mn
Bit rate mode : Variable
Bit rate : 128 Kbps
Channel(s) : 2 channels
Sampling rate : 48.0 KHz
Resolution : 16 bits
Stream size : 118 MiB (8%)
Alignment : Aligned on interleaves
Interleave, duration : 24 ms (0.60 video frame)
Interleave, preload duration : 231 ms


Trackers

Updated 1 year ago

1. http://tracker.thepiratebay.org/announce

2. udp://tracker.thepiratebay.org:80/announce

3. http://pow7.com:80/announce

4. http://nemesis.1337x.org/announce

5. http://genesis.1337x.org:1337/announce

6. udp://denis.stalker.h3q.com:6969/announce

7. http://denis.stalker.h3q.com:6969/announce

8. http://tracker.publicbt.com/announce

9. udp://tracker.publicbt.com:80/announce

10. udp://tracker.openbittorrent.com:80/announce

11. http://tracker.openbittorrent.com/announce

Comments

You must log in to add a comment.

Embed Code

Sharing Widget

Top Movies ( auto generated report )

FILENAME SIZE SEEDS PEERS ADDED UPD
[i] Need.For.Speed.2014.HD-TS.XVID.AC3.HQ.Hive-CM8 1.82 GB 10867 10056 2 days 11 hours
[i] Wolf Creek 2 (2013) HDRip Xvid Ac3-XYZ [P2PDL
Movies - Horror , Quality: Audio 7/10 - Video 7/10
1.24 GB 7382 7240 1 day 17 hours
[i] Son of Batman 2014 FRENCH BRRiP XviD-CARPEDIEM. 701.07 MB 4211 2691 16 hours 16 hours
[i] 2 States (2014) - DVDScr - Xvid - 1CD - Team M2TV
Movies - Romance , Quality: Audio 7/10 - Video 7/10
701.07 MB 4112 4716 1 day 3 hours
[i] The Art of the Steal (2013) 1080p BrRip x264 - YIFY
Movies - Comedy , Quality: Audio 9/10 - Video 9/10
1.24 GB 3765 1584 3 days 1 day
[i] The Railway Man (2013) 1080p BrRip x264 - YIFY 1.84 GB 3157 2370 1 day 17 hours
[i] Khumba (2013) 1080p BrRip x264 - YIFY
Movies - Animation , Quality: Audio 9/10 - Video 9/10
1.24 GB 2379 4491 20 hours 17 hours
[i] Devil's Due (2014) 1080p BrRip x264 - YIFY
Movies - Horror , Quality: Audio 9/10 - Video 9/10
1.23 GB 2318 880 3 days 1 day
[i] The Railway Man[2013] BRRip XViD juggs[ETRG] 705.82 MB 2261 1950 1 day 17 hours
[i] 2 States (2014) 720p DVDScr Rip x264 AAC raJonbOy 1.23 GB 1909 2514 2 days 6 hours