Bit Torrent Scene a public file sharing platform Home Upload Categories Collections Blog About

Don McKay (2010) HINDI MOVIE DVD RIP DivX AVI - MNAS

DOWNLOAD TORRENT

Posted on May 12, 2010 in Movies » Misc , downloaded 25 times

Size: 696.57 MB , Seeds: 0 , Peers: 0 ( Updated May 10, 2012 - Refresh )

* Download via Magnet Link

* To download files you need a Bittorrent Client , * How to download torrents from Bit Torrent Scene?

advertising ( remove )

External Info

Subtitles | Trailer | Wikipedia | Other Info

Internal Files

Don McKay (2010) HINDI MOVIE DVD RIP DivX AVI - MNAS
Don McKay (2010) HINDI MOVIE DVD RIP DivX AVI - MNAS.avi   696.42 MB
info.txt   1.36 KB

Hash Code

11a57c1d9f4fdd5958265b5f160f316428566dfe

Description


Format : AVI
Format/Info : Audio Video Interleave
Overall bit rate : 1 502 Kbps


Video
ID : 0
Format : MPEG-4 Visual
Format profile : AdvancedSimple[@]L5
Format settings, BVOP : Yes
Format settings, QPel : No
Format settings, GMC : No warppoints
Format settings, Matrix : Default (H.263)
Codec ID : XVID
Codec ID/Hint : XviD
Bit rate : 1 363 Kbps
Width : 608 pixels
Height : 256 pixels
Display aspect ratio : 2.35:1
Frame rate : 25.000 fps
Resolution : 24 bits
Colorimetry : 4:2:0
Scan type : Progressive
Bits/(Pixel*Frame) : 0.350
Stream size : 1.24 GiB (91%)
Writing library : XviD 1.2.1 (UTC 2008-12-04)

Audio
ID : 1
Format : MPEG Audio
Format version : Version 1
Format profile : Layer 3
Codec ID : 55
Codec ID/Hint : MP3
Duration : 2h 10mn
Bit rate mode : Variable
Bit rate : 128 Kbps
Channel(s) : 2 channels
Sampling rate : 48.0 KHz
Resolution : 16 bits
Stream size : 118 MiB (8%)
Alignment : Aligned on interleaves
Interleave, duration : 24 ms (0.60 video frame)
Interleave, preload duration : 231 ms


Trackers

Refresh Leechers : Updated May 10, 2012

1. http://tracker.thepiratebay.org/announce

2. udp://tracker.thepiratebay.org:80/announce

3. http://pow7.com:80/announce

4. http://nemesis.1337x.org/announce

5. http://genesis.1337x.org:1337/announce

6. udp://denis.stalker.h3q.com:6969/announce

7. http://denis.stalker.h3q.com:6969/announce

8. http://tracker.publicbt.com/announce

9. udp://tracker.publicbt.com:80/announce

10. udp://tracker.openbittorrent.com:80/announce

11. http://tracker.openbittorrent.com/announce

Comments

You must log in to add a comment.

Embed Code

Sharing Widget

Top Movies ( auto generated report )

FILENAME SIZE SEEDS PEERS ADDED UPD
[i] Locke (2013) 720p BrRip x264 - YIFY
Movies - Drama , Quality: Audio 8/10 - Video 8/10
702.5 MB 15716 4687 3 days 9 hours
[i] The Expendables 3 2014 DVDSCR RUS ENG | BaibaKo
Movies - Action , Quality: Audio 9/10 - Video 8/10
1.96 GB 11787 4348 2 days 1 day
[i] Draft Day 2014 720p HDRip x264 AC3-JYK
Movies - Drama , Quality: Audio 9/10 - Video 9/10
2.26 GB 6615 9199 1 day 7 hours
[i] Gods Not Dead (2014) 1080p BrRip x264 - YIFY
Movies - Drama , Quality: Audio 9/10 - Video 9/10
1.65 GB 6516 3268 3 days 9 hours
[i] Locke (2013) 1080p BrRip x264 - YIFY
Movies - Drama , Quality: Audio 9/10 - Video 9/10
1.24 GB 6337 3793 2 days 1 day
[i] The Bachelor Weekend (2013) 1080p BrRip x264 - YIFY
Movies - Comedy , Quality: Audio 9/10 - Video 9/10
1.44 GB 5821 3838 3 days 9 hours
[i] A.Haunted.House.2.2014.HDRip.XViD.juggs[ETRG]
Movies - Comedy , Quality: Audio 9/10 - Video 9/10
710.32 MB 4965 5779 1 day 11 hours
[i] GLOUBi the-angriest-man-in-brooklyn-french-dvdrip-x264-2014 698.9 MB 4754 1812 2 days 1 day
[i] Captain America The Winter Soldier 2014 DVDRip XviD AC3-RARBG
Movies - Action , Quality: Audio 8/10 - Video 8/10
2.29 GB 8701 25260 3 hours 1 hour
[i] Sex Tape 2014 FIRST CAM ENGLISH XviD MP3-RARBG
Movies - Comedy , Quality: Audio 6/10 - Video 6/10
1.57 GB 4320 3535 1 day 15 hours