Home Upload Categories Collections Blog About

FakeTaxi E63 Candi XXX 1080p MOV-KTR

DOWNLOAD TORRENT

Posted 6 months ago in Porn » Movies , downloaded 58 times , verified torrent

Size: 1.01 GB , Seeds: 0 , Peers: 1

Updated 1 month ago

* Download via Magnet Link , * Anonymous Download with Torrent Privacy

* To download files you need a Bittorrent Client , * How to download torrents from BitTorrentScene?

advertising ( remove )

Scrape History ( seeds + peers )

External Info

Trailer | Wikipedia | Other Info
advertising ( remove )

Internal Files

FakeTaxi.E63.Candi.XXX.1080p.MOV-KTR
faket.e63.candi.mov   1.01 GB
FakeTaxi.E63.Candi.XXX.1080p.MOV-KTR.nfo   254 Byte

Hash Code

6c797597d2e305db9d63f52d85ab7afcc2483433

Description


FakeTaxi E63 Candi XXX 1080p MOV-KTR



SCREENSHOT



Well this was a first she wasn't in the taxi for 2 minutes before she asked if I would except a blowjob instead of money for the fare. Well fuck me, it doesn't get better than this. And what a cracking pair of tits.



Format : MPEG-4

Format profile : QuickTime

Codec ID : qt

File size : 1.01 GiB

Duration : 24mn 14s

Overall bit rate : 5 971 Kbps

Encoded date : UTC 2013-10-01 17:19:24

Tagged date : UTC 2013-10-01 22:04:27

Writing library : Apple QuickTime

Media/UUID : C903A862-3F73-452B-A521-A89E91697B53



Video

ID : 1

Format : AVC

Format/Info : Advanced Video Codec

Format profile : Main@L4.0

Format settings, CABAC : No

Format settings, ReFrames : 2 frames

Format settings, GOP : M=2, N=50

Codec ID : avc1

Codec ID/Info : Advanced Video Coding

Duration : 24mn 14s

Bit rate : 5 840 Kbps

Width : 1 888 pixels

Original width : 1 920 pixels

Height : 1 062 pixels

Original height : 1 080 pixels

Display aspect ratio : 16:9

Frame rate mode : Constant

Frame rate : 25.000 fps

Color space : YUV

Chroma subsampling : 4:2:0

Bit depth : 8 bits

Scan type : Progressive

Bits/(Pixel*Frame) : 0.117

Stream size : 1 012 MiB (98%)

Language : English

Encoded date : UTC 2013-10-01 22:02:58

Tagged date : UTC 2013-10-01 22:04:27

Color primaries : BT.709

Transfer characteristics : BT.709

Matrix coefficients : BT.709



Audio

ID : 2

Format : AAC

Format/Info : Advanced Audio Codec

Format profile : LC

Codec ID : 40

Duration : 24mn 14s

Source duration : 24mn 14s

Bit rate mode : Constant

Bit rate : 128 Kbps

Channel(s) : 2 channels

Channel positions : Front: L R

Sampling rate : 44.1 KHz

Compression mode : Lossy

Stream size : 21.8 MiB (2%)

Source stream size : 21.8 MiB (2%)

Language : English

Encoded date : UTC 2013-10-01 22:02:58

Tagged date : UTC 2013-10-01 22:04:27



Menu

ID : 3

Duration : 24mn 14s

Language : English

Encoded date : UTC 2013-10-01 22:04:27

Tagged date : UTC 2013-10-01 22:04:27




Torrent location

http://www.1337x.org/torrent/645276/0/

Trackers

Updated 1 month ago

1. udp://tracker.publicbt.com:80/announce

2. udp://tracker.openbittorrent.com:80/announce

3. udp://tracker.istole.it:80/announce

4. udp://open.demonii.com:1337/announce

5. udp://9.rarbg.com:2710/announce

6. http://coppersurfer.tk:6969/announce

7. udp://fr33domtracker.h33t.com:3310/announce

Comments

You must log in to add a comment.

Embed Code

Sharing Widget

Related torrents

FILENAME SIZE SEEDS PEERS ADDED UPD
[i] FakeTaxi.E63.Candi.XXX.1080p.MOV-KTR 1.01 GB 5 2 6 months 1 month
[i] FakeTaxi - Candi-Episode 63 511.32 MB 3 0 6 months 1 month
[i] [FakeTaxi] Candi Blows (10.10.2013) (720p).mov 716.57 MB 2 0 6 months 1 month
[i] [FakeTaxi] Candi Blows 511.32 MB 2 2 5 months 5 months
[i] FakeTaxi.E63.Candi.XXX.1080p.MOV-KTR 1.01 GB 0 1 6 months 1 month
[i] [FakeTaxi] Candi Blows (10.10.2013) 511.32 MB 0 0 6 months 1 month