Bit Torrent Scene a public file sharing platform Home Upload Categories Collections Blog About

First Anal Quest - Fleur

DOWNLOAD TORRENT

Posted on June 30, 2013 in Porn » Movies , downloaded 87 times , verified torrent

Size: 239.32 MB , Seeds: 1 , Peers: 2 ( Updated July 4, 2014 - Refresh )

* Download via Magnet Link

* To download files you need a Bittorrent Client , * How to download torrents from Bit Torrent Scene?

advertising ( remove )

External Info

Trailer | Wikipedia | Other Info
advertising ( remove )
Banner

Internal Files

First_Anal_Quest_Fleur.wmv
First_Anal_Quest_Fleur.wmv   239.08 MB

Hash Code

fda7ed87dd32b321a31ea877a02b1ec51f7d8f94

Description

warning. adult imageSCREENSHOThttp://imgchili.net/show/35339/35339641_first_anal_quest_fle.jpg



This young sexy chick is a little shy. Her name is Fleur, and although she had sex with her ex-boyfriend before, she thought, that she would never let anybody fuck her in the ass. She was training a lot to do her ass more round and attractive; she shaved her pussy special for the act, and so now she was ready to lose her anal virginity right in front of the camera. Fleur find a man in our studio, that had some strange power on her, so she couldn't resist, when he put his cock out of her mouth and said: "I'm gonna fuck you in your sweet little corn-hole". Babe felt a little bit nervous from the start. But after a few minutes of relaxing ass and pussy massage she was ready to accept his dick and a shy girl turned into a cock-hungry slut craving for more anal screwing. Babe was purring with delight. This was the first anal fucking of her life and she really likes it.



First_Anal_Quest_Fleur.wmv

Format : Windows Media

File size : 239 MiB

Duration : 27mn 3s

Overall bit rate mode : Constant

Overall bit rate : 1 235 Kbps

Maximum Overall bit rate : 1 242 Kbps

Encoded date : UTC 2009-08-04 12:11:33.112

SfOriginalFPS : 299700



Video

ID : 2

Format : VC-1

Format profile : MP@ML

Codec ID : WMV3

Codec ID/Info : Windows Media Video 9

Codec ID/Hint : WMV3

Description of the codec : Windows Media Video 9

Duration : 27mn 3s

Bit rate mode : Constant

Bit rate : 1 165 Kbps

Width : 580 pixels

Height : 328 pixels

Display aspect ratio : 16:9

Frame rate : 29.970 fps

Bit depth : 8 bits

Scan type : Progressive

Compression mode : Lossy

Bits/(Pixel*Frame) : 0.204

Stream size : 225 MiB (94%)

Language : Russian



Audio

ID : 1

Format : WMA

Format version : Version 2

Codec ID : 161

Codec ID/Info : Windows Media Audio

Description of the codec : Windows Media Audio 9.2 - 64 kbps, 44 kHz, stereo (A/V) 1-pass CBR

Duration : 27mn 3s

Bit rate mode : Constant

Bit rate : 64.0 Kbps

Channel(s) : 2 channels

Sampling rate : 44.1 KHz

Bit depth : 16 bits

Stream size : 12.4 MiB (5%)

Language : Russian

Torrent location

http://extratorrent.com/torrent/3123147/First+Anal+Quest+-+Fleur.html

Scrape History ( seeds + peers )

Trackers

Refresh Leechers : Updated July 4, 2014

1. http://exodus.desync.com:6969/announce

2. http://fr33dom.h33t.com:3310/announce

3. udp://10.rarbg.com/announce

4. udp://fr33dom.h33t.com:3310/announce

5. udp://tracker.istole.it:80/announce

6. udp://tracker.publicbt.com:80/announce

7. udp://tracker.openbittorrent.com:80/announce

8. udp://ipv4.tracker.harry.lu:80/announce

9. udp://tracker.ex.ua/announce

10. udp://9.rarbg.com:2710/announce

11. udp://11.rarbg.com/announce

12. http://exodus.desync.com/announce

13. http://www.h33t.com:3310/announce

14. http://tracker.coppersurfer.tk:6969/announce

15. http://tracker.ex.ua/announce

Comments

You must log in to add a comment.

Embed Code

Sharing Widget