Bit Torrent Scene a public file sharing platform Home Upload Categories Collections Blog About

Fuck Hard 18 - Ashlyn Rae (XXX)(iPod,PSP,Zune)

DOWNLOAD TORRENT

Posted on February 6, 2011 in Misc » Others , downloaded 189 times

Size: 165.29 MB , Seeds: 2 , Peers: 0 ( Updated February 5, 2012 - Refresh )

* Download via Magnet Link

* To download files you need a Bittorrent Client , * How to download torrents from Bit Torrent Scene?

advertising ( remove )

External Info

Trailer | Wikipedia | Other Info

Internal Files

Fuck Hard 18 - Ashlyn Rae
Ashlyn Rae Screen.jpg   224.13 KB
Ashlyn Rae.m4v   164.99 MB

Hash Code

369851bd4879bb817cb86658140bc751c503d0c0

Description


Screenshot

http://84448b75.drstickyfingers.com

Video
ID : 1
Format : AVC
Format/Info : Advanced Video Codec
Format profile : Baseline@L2.1
Format settings, CABAC : No
Format settings, ReFrames : 2 frames
Codec ID : avc1
Codec ID/Info : Advanced Video Coding
Duration : 46mn 10s
Bit rate mode : Variable
Bit rate : 400 Kbps
Width : 480 pixels
Height : 272 pixels
Display aspect ratio : 16:9
Frame rate mode : Variable
Frame rate : 23.976 fps
Minimum frame rate : 23.974 fps
Maximum frame rate : 23.981 fps
Color space : YUV
Chroma subsampling : 4:2:0
Bit depth : 8 bits
Scan type : Progressive
Bits/(Pixel*Frame) : 0.128
Stream size : 132 MiB (80%)
Writing library : x264 core 112

Audio
ID : 2
Format : AAC
Format/Info : Advanced Audio Codec
Format profile : LC
Codec ID : 40
Duration : 46mn 11s
Bit rate mode : Variable
Bit rate : 96.0 Kbps
Maximum bit rate : 109 Kbps
Channel(s) : 2 channels
Channel positions : Front: L R
Sampling rate : 48.0 KHz
Compression mode : Lossy
Stream size : 31.7 MiB (19%)
Language : English

Screenshot

http://84448b75.drstickyfingers.com

Trackers

Refresh Leechers : Updated February 5, 2012

1. http://tracker.thepiratebay.org/announce

2. udp://tracker.thepiratebay.org:80/announce

3. udp://tracker.openbittorrent.com:80/announce

4. udp://tracker.publicbt.com:80/announce

5. http://tracker.publicbt.com/announce

6. http://exodus.1337x.org/announce

Comments

You must log in to add a comment.

Embed Code

Sharing Widget