Home Upload Categories Collections Blog About

Ice age 3 [dublat romana]

DOWNLOAD TORRENT

Posted 3 years ago in Movies » Misc , downloaded 79 times

Size: 865.3 MB , Seeds: 4 , Peers: 0

Updated 1 year ago

* Download via Magnet Link , * Anonymous Download with Torrent Privacy

* To download files you need a Bittorrent Client , * How to download torrents from BitTorrentScene?

advertising ( remove )

Scrape History ( seeds + peers )

External Info

Subtitles | Trailer | Wikipedia | Other Info

Internal Files

Ice age 3 [dublat romana]
Ice age 3 [dublat romana].avi   864.7 MB
info.txt   1.68 KB

Hash Code

02402e5c1970d50185ebd46cbceddc63ddfc0a10

Description


Format : MPEG-4 Visual
Format profile : Simple@L3
Format settings, BVOP : No
Format settings, QPel : No
Format settings, GMC : No warppoints
Format settings, Matrix : Default (H.263)
Codec ID : XVID
Codec ID/Hint : XviD
Duration : 1h 30mn
Bit rate : 1 199 Kbps
Width : 640 pixels
Height : 480 pixels
Display aspect ratio : 4:3
Frame rate : 25.000 fps
Resolution : 8 bits
Colorimetry : 4:2:0
Scan type : Progressive
Bits/(Pixel*Frame) : 0.156
Stream size : 774 MiB (89%)
Writing library : XviD 1.1.0 Beta2 (UTC 2005-04-04)

Audio
ID : 1
Format : MPEG Audio
Format version : Version 1
Format profile : Layer 3
Mode : Joint stereo
Format_Settings_ModeExtension : MS Stereo
Codec ID : 55
Codec ID/Hint : MP3
Duration : 1h 30mn
Bit rate mode : Constant
Bit rate : 128 Kbps
Channel(s) : 2 channels
Sampling rate : 48.0 KHz
Stream size : 82.6 MiB (10%)
Alignment : Aligned on interleaves
Interleave, duration : 24 ms (0.60 video frame)
Writing library : LAME3.96.1

Trackers

Updated 1 year ago

1. http://tracker.thepiratebay.org/announce

2. udp://tracker.thepiratebay.org:80/announce

3. http://tracker.openbittorrent.com/announce

4. udp://tracker.openbittorrent.com:80/announce

5. udp://tracker.publicbt.com:80/announce

6. http://tracker.publicbt.com/announce

Comments

You must log in to add a comment.

Embed Code

Sharing Widget

Top Movies ( auto generated report )

FILENAME SIZE SEEDS PEERS ADDED UPD
[i] The Railway Man (2013) 720p BrRip x264 - YIFY
Movies - Drama , Quality: Audio 8/10 - Video 9/10
866.5 MB 8197 2146 10 hours 10 hours
[i] Wolf Creek 2 (2013) HDRip Xvid Ac3-XYZ [P2PDL
Movies - Horror , Quality: Audio 7/10 - Video 7/10
1.24 GB 8062 3635 4 days 2 days
[i] Enemy [2013] HDRip XViD juggs[ETRG]
Movies - Thriller , Quality: Audio 9/10 - Video 9/10
704.32 MB 6646 6607 11 hours 11 hours
[i] Planes (2013) 720p BrRip x264 - YIFY
Movies - Animation , Quality: Audio 9/10 - Video 9/10
752.5 MB 6645 5086 1 day 1 day
[i] Khumba (2013) 1080p BrRip x264 - YIFY
Movies - Animation , Quality: Audio 9/10 - Video 9/10
1.24 GB 6491 3926 3 days 1 day
[i] The Patrol 2013 DVDRip XviD-HELLRAZ0R
Movies - Drama , Quality: Audio 8/10 - Video 8/10
707.07 MB 5483 5905 1 day 11 hours
[i] Extraction [2013] HDRip XViD juggs[ETRG]
Movies - Action , Quality: Audio 9/10 - Video 9/10
707.07 MB 5222 6190 1 day 11 hours
[i] Son of Batman 2014 FRENCH BRRiP XviD-CARPEDIEM.
Movies - Animation , Quality: Audio 8/10 - Video 8/10
701.07 MB 4278 859 3 days 1 day
[i] Planes (2013) 1080p BrRip x264 - YIFY
Movies - Animation , Quality: Audio 9/10 - Video 9/10
1.44 GB 3530 1946 2 days 4 hours
[i] Pup (2013) 720p BrRip x264 - YIFY
Movies - Animation , Quality: Audio 9/10 - Video 9/10
694.5 MB 3654 4235 17 hours 11 hours