Home Upload Categories Collections Blog About

John Carter DVDRIP LATINO

DOWNLOAD TORRENT

Posted 1 year ago in Movies » Misc , downloaded 11 times

Size: 805.3 MB , Seeds: 0 , Peers: 1

Updated 1 year ago

* Download via Magnet Link , * Anonymous Download with Torrent Privacy

* To download files you need a Bittorrent Client , * How to download torrents from BitTorrentScene?

advertising ( remove )

Scrape History ( seeds + peers )

External Info

Subtitles | Trailer | Wikipedia | Other Info

Internal Files

John Cartet 2012 DVDRip Latino.avi
John Cartet 2012 DVDRip Latino.avi   804.85 MB

Hash Code

b9df16eefff1a5ca8e6e74336d5cfe24df7099b7

Description


Generalidades

Calificación: 7,0/10 34.863 votos »
Director: Andrew Stanton
Escritores:
Andrew Stanton (guión) &
Mark Andrews (guión) ...
Ver más »
Fecha de Estreno: 9 marzo 2012 (Colombia)
Género: Acción | Aventura | Fantasía | Ciencia-Ficción

Idioma: Español latino
Subtitulos: No

Video
ID : 0
Format : MPEG-4 Visual
Format profile : Simple@L3
Format settings, BVOP : No
Format settings, QPel : No
Format settings, GMC : No warppoints
Format settings, Matrix : Default (H.263)
Codec ID : XVID
Codec ID/Hint : XviD
Duration : 2h 12mn
Bit rate : 747 Kbps
Width : 608 pixels
Height : 256 pixels
Display aspect ratio : 2.35:1
Frame rate : 23.976 fps
Color space : YUV
Chroma subsampling : 4:2:0
Bit depth : 8 bits
Scan type : Progressive
Bits/(Pixel*Frame) : 0.200
Stream size : 705 MiB (88%)
Writing library : XviD 1.2.1 (UTC 2008-12-04)

Audio
ID : 1
Format : MPEG Audio
Format version : Version 1
Format profile : Layer 3
Mode : Joint stereo
Mode extension : MS Stereo
Codec ID : 55
Codec ID/Hint : MP3
Duration : 2h 12mn
Bit rate mode : Constant
Bit rate : 96.0 Kbps
Channel(s) : 2 channels
Sampling rate : 48.0 KHz
Stream size : 90.7 MiB (11%)
Alignment : Split accross interleaves
Interleave, duration : 42 ms (1.00 video frame)
Interleave, preload duration : 500 ms
Language : Latin / Aragonese

Torrent location

http://thepiratebay.se/torrent/7280108/John_Carter_DVDRIP_LATINO

Trackers

Updated 1 year ago

1. http://tracker.thepiratebay.org/announce

2. udp://tracker.openbittorrent.com:80

3. udp://tracker.ccc.de:80

4. udp://tracker.publicbt.com:80

Comments

You must log in to add a comment.

Embed Code

Sharing Widget

Top Movies ( auto generated report )

FILENAME SIZE SEEDS PEERS ADDED UPD
[i] Need.For.Speed.2014.HD-TS.XVID.AC3.HQ.Hive-CM8 1.82 GB 10867 10056 2 days 14 hours
[i] Wolf Creek 2 (2013) HDRip Xvid Ac3-XYZ [P2PDL
Movies - Horror , Quality: Audio 7/10 - Video 7/10
1.24 GB 7382 7240 1 day 20 hours
[i] Son of Batman 2014 FRENCH BRRiP XviD-CARPEDIEM. 701.07 MB 4211 2691 19 hours 19 hours
[i] 2 States (2014) - DVDScr - Xvid - 1CD - Team M2TV
Movies - Romance , Quality: Audio 7/10 - Video 7/10
701.07 MB 4112 4716 1 day 6 hours
[i] The Art of the Steal (2013) 1080p BrRip x264 - YIFY
Movies - Comedy , Quality: Audio 9/10 - Video 9/10
1.24 GB 3765 1584 3 days 1 day
[i] The Railway Man (2013) 1080p BrRip x264 - YIFY 1.84 GB 3157 2370 1 day 19 hours
[i] Khumba (2013) 1080p BrRip x264 - YIFY
Movies - Animation , Quality: Audio 9/10 - Video 9/10
1.24 GB 2379 4491 22 hours 20 hours
[i] Devil's Due (2014) 1080p BrRip x264 - YIFY
Movies - Horror , Quality: Audio 9/10 - Video 9/10
1.23 GB 2318 880 4 days 2 days
[i] The Railway Man[2013] BRRip XViD juggs[ETRG] 705.82 MB 1786 1427 2 days 2 hours
[i] 2 States (2014) 720p DVDScr Rip x264 AAC raJonbOy 1.23 GB 1909 2514 2 days 9 hours