Bit Torrent Scene a public file sharing platform Home Upload Categories Collections Blog About

John Carter DVDRIP LATINO

DOWNLOAD TORRENT

Posted on May 19, 2012 in Movies » Misc , downloaded 11 times

Size: 805.3 MB , Seeds: 0 , Peers: 1 ( Updated May 28, 2014 - Refresh )

* Download via Magnet Link

* To download files you need a Bittorrent Client , * How to download torrents from Bit Torrent Scene?

advertising ( remove )

External Info

Subtitles | Trailer | Wikipedia | Other Info

Internal Files

John Cartet 2012 DVDRip Latino.avi
John Cartet 2012 DVDRip Latino.avi   804.85 MB

Hash Code

b9df16eefff1a5ca8e6e74336d5cfe24df7099b7

Description


Generalidades

Calificación: 7,0/10 34.863 votos »
Director: Andrew Stanton
Escritores:
Andrew Stanton (guión) &
Mark Andrews (guión) ...
Ver más »
Fecha de Estreno: 9 marzo 2012 (Colombia)
Género: Acción | Aventura | Fantasía | Ciencia-Ficción

Idioma: Español latino
Subtitulos: No

Video
ID : 0
Format : MPEG-4 Visual
Format profile : Simple@L3
Format settings, BVOP : No
Format settings, QPel : No
Format settings, GMC : No warppoints
Format settings, Matrix : Default (H.263)
Codec ID : XVID
Codec ID/Hint : XviD
Duration : 2h 12mn
Bit rate : 747 Kbps
Width : 608 pixels
Height : 256 pixels
Display aspect ratio : 2.35:1
Frame rate : 23.976 fps
Color space : YUV
Chroma subsampling : 4:2:0
Bit depth : 8 bits
Scan type : Progressive
Bits/(Pixel*Frame) : 0.200
Stream size : 705 MiB (88%)
Writing library : XviD 1.2.1 (UTC 2008-12-04)

Audio
ID : 1
Format : MPEG Audio
Format version : Version 1
Format profile : Layer 3
Mode : Joint stereo
Mode extension : MS Stereo
Codec ID : 55
Codec ID/Hint : MP3
Duration : 2h 12mn
Bit rate mode : Constant
Bit rate : 96.0 Kbps
Channel(s) : 2 channels
Sampling rate : 48.0 KHz
Stream size : 90.7 MiB (11%)
Alignment : Split accross interleaves
Interleave, duration : 42 ms (1.00 video frame)
Interleave, preload duration : 500 ms
Language : Latin / Aragonese

Torrent location

http://thepiratebay.se/torrent/7280108/John_Carter_DVDRIP_LATINO

Scrape History ( seeds + peers )

Trackers

Refresh Leechers : Updated May 28, 2014

1. http://tracker.thepiratebay.org/announce

2. udp://tracker.openbittorrent.com:80

3. udp://tracker.ccc.de:80

4. udp://tracker.publicbt.com:80

Comments

You must log in to add a comment.

Embed Code

Sharing Widget

Top Movies ( auto generated report )

FILENAME SIZE SEEDS PEERS ADDED UPD
[i] Edge of Tomorrow 2014 1080p WEBRip HC XviD MP3-RARBG
Movies - Sci-Fi , Quality: Audio 7/10 - Video 8/10
2.54 GB 19691 14891 1 day 19 hours
[i] How.to.Train.Your.Dragon.2.2014.HDRip.XViD-juggs[ETRG]
Movies - Animation , Quality: Audio 9/10 - Video 9/10
708.32 MB 9432 8075 2 days 1 day
[i] Think.Like.A.Man.Too.2014.FRENCH.BDRip.XviD-oo0oo 700.82 MB 4612 731 1 day 21 hours
[i] How to Train Your Dragon 2 (2014) WEBDL XviD-MAXSPEED
Movies - Animation , Quality: Audio 9/10 - Video 9/10
1.47 GB 4512 3825 2 days 1 day
[i] Heavenly.Sword.2014.HDRip.XviD.AC3-EVO 1.34 GB 4353 9253 19 hours 11 hours
[i] Edge Of Tomorrow 2014 HC 720p WEBRip x264 AC3-JYK
Movies - Sci-Fi , Quality: Audio 8/10 - Video 9/10
1.86 GB 3625 4005 1 day 14 hours
[i] Sector 4 Extraction (2014) 720p BrRip x264 - YIFY
Movies - Action , Quality: Audio 9/10 - Video 9/10
696.5 MB 2921 2156 1 day 16 hours
[i] The Devil's Advocate (1997) 1080p BrRip x264 - YIFY 2.07 GB 2611 2262 1 day 2 hours
[i] The Expendables 3 (2014) in HD 928.3 MB 2480 802 1 day 19 hours
[i] Star Wars The Complete Saga 1080p BluRay AC3 x264-tomcat12[ETRG]
Movies - Sci-Fi , Quality: Audio 9/10 - Video 9/10
21.77 GB 2172 9231 1 day 11 hours