Bit Torrent Scene a public file sharing platform Home Upload Categories Collections Blog About

Kiera Winters - CastingCouch-X

DOWNLOAD TORRENT

Posted on May 10, 2013 in Porn » Movies , downloaded 13981 times , verified torrent

Size: 365.15 MB , Seeds: 3 , Peers: 1 ( Updated May 14, 2014 - Refresh )

* Download via Magnet Link

* To download files you need a Bittorrent Client , * How to download torrents from Bit Torrent Scene?

advertising ( remove )

External Info

Trailer | Wikipedia | Other Info
advertising ( remove )
Banner

Internal Files

Kiera_Winters_CastingCouch-X.avi
Kiera_Winters_CastingCouch-X.avi   364.92 MB

Hash Code

f19b49682bf484b87b8e05a9cad3d72b004c9575

Description



Screens:

http://imgchili.com/show/32649/32649311_kiera_winters_castin.jpg

Kiera_Winters_CastingCouch-X.avi

Format : AVI

Format/Info : Audio Video Interleave

File size : 365 MiB

Duration : 45mn 38s

Overall bit rate : 1 118 Kbps

Writing library : VirtualDub build 32842/release



Video

ID : 0

Format : AVC

Format/Info : Advanced Video Codec

Format profile : High@L3.0

Format settings, CABAC : Yes

Format settings, ReFrames : 5 frames

Codec ID : AVC1

Duration : 45mn 38s

Bit rate : 1 000 Kbps

Width : 750 pixels

Height : 420 pixels

Display aspect ratio : 16:9

Frame rate mode : Variable

Frame rate : 24.000 fps

Color space : YUV

Chroma subsampling : 4:2:0

Bit depth : 8 bits

Scan type : Progressive

Bits/(Pixel*Frame) : 0.132

Stream size : 329 MiB (90%)

Writing library : x264 core 119 r2106 07efeb4

Encoding settings : cabac=1 / ref=5 / deblock=1:0:0 / analyse=0x3:0x113 / me=umh / subme=8 / psy=0 / mixed_ref=1 / me_range=16 / chroma_me=1 / trellis=1 / 8x8dct=1 / cqm=0 / deadzone=21,11 / fast_pskip=1 / chroma_qp_offset=0 / threads=24 / sliced_threads=0 / nr=0 / decimate=1 / interlaced=0 / bluray_compat=0 / constrained_intra=0 / bframes=3 / b_pyramid=2 / b_adapt=2 / b_bias=0 / direct=3 / weightb=1 / open_gop=0 / weightp=2 / keyint=250 / keyint_min=25 / scenecut=40 / intra_refresh=0 / rc=abr / mbtree=0 / bitrate=1000 / ratetol=1.0 / qcomp=0.60 / qpmin=10 / qpmax=51 / qpstep=4 / ip_ratio=1.40 / pb_ratio=1.30 / aq=1:1.00



Audio

ID : 1

Format : AAC

Format/Info : Advanced Audio Codec

Format profile : LC

Codec ID : FF

Duration : 45mn 38s

Bit rate : 96.0 Kbps

Channel(s) : 2 channels

Channel positions : Front: L R

Sampling rate : 48.0 KHz

Compression mode : Lossy

Stream size : 31.2 MiB (9%)

Alignment : Split accross interleaves

Interleave, duration : 21 ms (0.51 video frame)

Interleave, preload duration : 19 ms


Torrent location

http://kat.ph/kiera-winters-castingcouch-x-t7401499.html

Scrape History ( seeds + peers )

Trackers

Refresh Leechers : Updated May 14, 2014

1. udp://tracker.publicbt.com:80/announce

2. udp://tracker.openbittorrent.com:80/announce

3. udp://fr33domtracker.h33t.com:3310/announce

4. udp://tracker.istole.it:80/announce

5. http://tracker.ex.ua/announce

6. http://tracker.coppersurfer.tk:6969/announce

7. http://www.h33t.com:3310/announce

8. http://exodus.desync.com/announce

9. udp://9.rarbg.com:2710/announce

10. udp://ipv4.tracker.harry.lu:80/announce

Comments

You must log in to add a comment.

Embed Code

Sharing Widget