Bit Torrent Scene a public file sharing platform Home Upload Categories Collections Blog About

Little Murder 2011 DVDRip XviD-OCW

DOWNLOAD TORRENT

Posted on December 7, 2011 in Movies » Misc , downloaded 26 times , verified torrent

Size: 1.02 GB , Seeds: 15 , Peers: 1 ( Updated May 4, 2012 - Refresh )

* Download via Magnet Link

* To download files you need a Bittorrent Client , * How to download torrents from Bit Torrent Scene?

advertising ( remove )

External Info

Subtitles | Trailer | Wikipedia | Other Info

Internal Files

Little murder
Torrent downloaded from Demonoid.me.txt   46 Byte
Little.Murder.2011.DVDRip.XviD.OCW.avi   1.02 GB

Hash Code

804eca21900a82b1f098aa87b862b42ee1b25270

Description


Little Murder 2011 DVDRip XviD OCW


http://imdb.com/title/tt1493815/

In post-Katrina New Orleans, a disgraced detective encounters the ghost of a murdered woman who wants to help him identify her killer..

General
Complete name : Little.Murder.2011.DVDRip.XviD.OCW.avi
Format : AVI
Format/Info : Audio Video Interleave
File size : 1.02 GiB
Duration : 1h 33mn
Overall bit rate : 1 564 Kbps

Video
ID : 0
Format : AVC
Format/Info : Advanced Video Codec
Format profile : High@L5.1
Format settings, CABAC : Yes
Format settings, ReFrames : 2 frames
Codec ID : H264
Duration : 1h 33mn
Bit rate : 1 362 Kbps
Width : 1 024 pixels
Height : 576 pixels
Display aspect ratio : 16:9
Frame rate : 25.000 fps
Color space : YUV
Chroma subsampling : 4:2:0
Bit depth : 8 bits
Scan type : Progressive
Bits/(Pixel*Frame) : 0.092
Stream size : 914 MiB (87%)

Audio
ID : 1
Format : MPEG Audio
Format version : Version 1
Format profile : Layer 3
Codec ID : 55
Codec ID/Hint : MP3
Duration : 1h 33mn
Bit rate mode : Constant
Bit rate : 192 Kbps
Channel(s) : 2 channels
Sampling rate : 44.1 KHz
Compression mode : Lossy
Stream size : 129 MiB (12%)
Alignment : Split accross interleaves
Interleave, duration : 40 ms (1.01 video frame)
Interleave, preload duration : 457 ms


Poster:


http://i.imgur.com/SwdFA.jpg


Screens:


http://i.imgur.com/15Q3H.png


http://i.imgur.com/zt7w0.png


http://i.imgur.com/7wYqv.png


ENJOY!

Torrent location

http://thepiratebay.org/torrent/6871162/Little_Murder_2011_DVDRip_XviD-OCW

Trackers

Refresh Leechers : Updated May 4, 2012

1. http://tracker.thepiratebay.org/announce

2. udp://tracker.openbittorrent.com:80

3. udp://tracker.ccc.de:80

4. udp://tracker.publicbt.com:80

5. udp://tracker.istole.it:80

6. http://pow7.com/announce

7. http://tracker.ex.ua/announce

8. udp://tracker.1337x.org:80/announce

9. http://exodus.desync.com:6969/announce

10. http://inferno.demonoid.me:3412/announce

Comments

You must log in to add a comment.

Embed Code

Sharing Widget

Related torrents

FILENAME SIZE SEEDS PEERS ADDED UPD
[i] Little.Murder.2011.DVDRip.XviD.OCW 1.02 GB 7 1 2 years 2 years
[i] Little Murder 2011 DVDRip XviD-RedBlade
posted by Boobsman in Movies - Thriller
700.61 MB 5 4 2 years 1 year
[i] Little.Murder.2011.DVDRip.XviD.OCW 1.02 GB 3 0 2 years 2 years
[i] Little.Murder.2011.DVDRip.XviD-OCW 1.03 GB 2 1 2 years 1 year
[i] Little.Murder.2011.DVDRip 339.15 MB 1 0 2 years 1 year
[i] Little.Murder.2011.DVDRip.XviD-RedBlade 700.82 MB 1 0 2 years 1 year
[i] Little Murder (2011) [DvdRip 400mb] BHATTI 401.15 MB 0 0 2 years 2 years
[i] Little Murder 2011 DVDRip XviD-BHRG 707.57 MB 0 1 2 years 1 year

Top Movies ( auto generated report )

FILENAME SIZE SEEDS PEERS ADDED UPD
[i] Into.the.Storm.2014.HDRip.XviD-SaM[ETRG]
Movies - Action , Quality: Audio 8/10 - Video 8/10
709.3 MB 16177 11056 2 days 1 day
[i] Into the Storm (2014) 1080p BrRip x264 - YIFY
Movies - Thriller , Quality: Audio 9/10 - Video 9/10
1.24 GB 13742 11109 1 day 7 hours
[i] Let's Be Cops (2014) 1080p BrRip x264 - YIFY
Movies - Comedy , Quality: Audio 9/10 - Video 9/10
1.64 GB 10481 5266 3 days 2 days
[i] Dawn.of.the.Planet.of.the.Apes.2014.HDRip.XviD-EVO
Movies - Sci-Fi , Quality: Audio 8/10 - Video 8/10
877.32 MB 9709 8032 3 days 2 days
[i] Into the Storm (2014) 720p BrRip x264 - YIFY
Movies - Thriller , Quality: Audio 9/10 - Video 9/10
700.5 MB 9572 6936 1 day 15 hours
[i] Automata (2014) 720p BrRip x264 - YIFY
Movies - Sci-Fi , Quality: Audio 9/10 - Video 9/10
816.5 MB 8689 4903 1 day 4 hours
[i] Into The Storm 2014 1080p WEB-DL AAC2 0 H264-RARBG
Movies - Thriller , Quality: Audio 9/10 - Video 9/10
3.27 GB 7683 6006 2 days 1 day
[i] Teenage Mutant Ninja Turtles 2014 1080p WEB-DL x264 AC3-JYK
Movies - Adventure , Quality: Audio 9/10 - Video 9/10
3.36 GB 6238 4998 2 days 7 hours
[i] Teenage Mutant Ninja Turtles 2014 HDRip XViD-juggs[ETRG]
Movies - Adventure , Quality: Audio 8/10 - Video 8/10
706.32 MB 6113 3317 1 day 7 hours
[i] These Final Hours 2013 WBBRip
Movies - Thriller , Quality: Audio 8/10 - Video 8/10
556.17 MB 5445 2689 7 hours 5 hours