Home Upload Categories Collections Blog About

MacProVideo.com Native Instruments 208 Maschine's Sampler Explored TUTORIAL [DS][H33T]

DOWNLOAD TORRENT

Posted 2 years ago in Misc » Others , downloaded 32 times , verified torrent

Size: 155.07 MB , Seeds: 5 , Peers: 1

Refresh Leechers : Updated 1 year ago

* Download via Magnet Link , * Anonymous Download with Torrent Privacy

* To download files you need a Bittorrent Client , * How to download torrents from BitTorrentScene?

advertising ( remove )

Scrape History ( seeds + peers )

External Info

Trailer | Wikipedia | Other Info

Internal Files

MacProVideo.com Native Instruments 208 Maschine's Sampler Explored TUTORIAL
MacProVideo Native Instruments 208 Maschine's Sampler Explored TUTORIAL.rar   154.92 MB
iNFO.txt   4.23 KB

Hash Code

b0bbb750724dd698038259a3ce941ea7e69fe302

Description



























Native Instruments 208

Maschine's Sampler Explored

65 minutes | by Matt Cellitti




















Maschine by Native Instruments is one of the most comprehensive samplers on the planet. Learn how you can harness the power of this sampling beast in this deep tutorial by Native Instruments Product Specialist Matt Cellitti...



At the heart of the Maschine concept is its ability to create and manipulate samples. In this tutorial by NI Product Specialist Matt Cellitti, you’ll learn everything there is to know about sampling with Maschine and more!



Matt first discusses the “Four Uses" For Maschine’s sampler (you’ll need to watch this tutorial to find out what they are!) You’ll also learn tips on how to create you own samples recording them both internally and externally. Matt teaches you all about slicing and chopping techniques and how you can use them to energize your beats! There’s even an awesome section on sampling from third-party applications that will open up a whole new world of creativity.



In the final 3 videos of this amazing tutorial Matt pulls back the virtual curtain and shows you how he approaches sound design in the Maschine sampling environment.



Sampling IS the heart of Maschine. And Matt Cellitti gives you the ultimate Maschine Valentine in this exhaustive, deep look at Maschine’s powerful sampling tools!






Complete name: MacProVideo.Native.Instruments.208.Maschine's.Sampler.Explored.mov

Format                           : MPEG-4

Format profile                   : QuickTime

Codec ID                         : qt  

File size                        : 6.79 MiB

Duration                         : 1mn 41s

Overall bit rate                 : 560 Kbps

Encoded date                     : UTC 2011-08-25 21:35:52

Tagged date                      : UTC 2011-08-25 21:35:54

Writing library                  : Apple QuickTime

Media/UUID                       : DCE3FAC8-2C2C-4BCE-B30C-11DC32BD9BF7



Video

ID                               : 1

Format                           : AVC

Format/Info                      : Advanced Video Codec

Format profile                   : Main@L3.1

Format settings, CABAC           : No

Format settings, ReFrames        : 2 frames

Format settings, GOP             : M=2, N=30

Codec ID                         : avc1

Codec ID/Info                    : Advanced Video Coding

Duration                         : 1mn 41s

Bit rate                         : 444 Kbps

Width                            : 960 pixels

Height                           : 540 pixels

Display aspect ratio             : 16:9

Frame rate mode                  : Constant

Frame rate                       : 10.000 fps

Color space                      : YUV

Chroma subsampling               : 4:2:0

Bit depth                        : 8 bits

Scan type                        : Progressive

Bits/(Pixel*Frame)               : 0.086

Stream size                      : 5.38 MiB (79%)

Language                         : English

Encoded date                     : UTC 2011-08-25 21:35:52

Tagged date                      : UTC 2011-08-25 21:35:54

Color primaries                  : BT.709-5, BT.1361, IEC 61966-2-4, SMPTE RP177

Transfer characteristics         : BT.709-5, BT.1361

Matrix coefficients              : BT.709-5, BT.1361, IEC 61966-2-4 709, SMPTE RP177



Audio

ID                               : 2

Format                           : AAC

Format/Info                      : Advanced Audio Codec

Format profile                   : LC

Codec ID                         : 40

Duration                         : 1mn 40s

Bit rate mode                    : Constant

Bit rate                         : 112 Kbps

Channel(s)                       : 2 channels

Channel positions                : Front: L R

Sampling rate                    : 44.1 KHz

Compression mode                 : Lossy

Stream size                      : 1.37 MiB (20%)

Language                         : English

Encoded date                     : UTC 2011-08-25 21:35:52

Tagged date                      : UTC 2011-08-25 21:35:54








:... enjoY!!! ...:










Trackers

Refresh Leechers : Updated 1 year ago

1. http://fr33dom.h33t.com:3310/announce

2. http://www.h33t.com:3310/announce

3. http://solodz.me:2710/announce

4. http://tracker2.istole.it:6969/announce

5. udp://tracker.openbittorrent.com:80/announce

6. udp://tracker.1337x.org:80/announce

7. http://tracker.istole.it:80/announce

8. http://tracker.torrent.to:2710/announce

9. http://tracker.thepiratebay.org/announce

10. udp://tracker.openbittorrent.com:80

11. udp://tracker.istole.it:80

Comments

You must log in to add a comment.

Embed Code

Sharing Widget