Home Upload Categories Collections Blog About

Marry Him If You Dare E06 HDTV XVID LIMO

DOWNLOAD TORRENT

Posted 5 months ago in Series » Misc , downloaded 1 time , verified torrent

Size: 674.82 MB , Seeds: 1 , Peers: 0

Updated 2 weeks ago

* Download via Magnet Link , * Anonymous Download with Torrent Privacy

* To download files you need a Bittorrent Client , * How to download torrents from BitTorrentScene?

advertising ( remove )

Scrape History ( seeds + peers )

External Info

Subtitles | Trailer | Wikipedia | Other Info

Internal Files

Marry.Him.If.You.Dare.E06.131029.HDTV.XviD-LIMO
Marry.Him.If.You.Dare.E06.131029.HDTV.XviD-LIMO.avi   674.49 MB
Marry.Him.If.You.Dare.E06.131029.HDTV.XviD-LIMO.srt   62.8 KB
ViSiT@@ AreaFiles.org.txt   404 Byte

Hash Code

f7a7aed6a5f51426eee8d748b59479b83b6b3c5c

Description

SCREENSHOT



Details



Title: 미래의 선택 / Mi Rae-ui Suntaek

Also known as: Mi Rae's Choice / Future's Choice / The Choice of the Future / The Future Choice

Genre: Romance, comedy, time travel, fantasy

Episodes: TBA

Broadcast network: KBS2

Broadcast period: 2013-Oct-14 to 2013-Dec-??

Air time: Monday & Tuesday 22:00

Subtitles English



Synopsis

32 years old for woman is an age which may be little too late to start something new or little too early to give up something. The 'future-self' comes to ‘me’ today and gives advices about life and marriage. The future-self is trying to bring better life by helping her to meet a perfect spouse.--KBS World

This drama will tell the story about a 57 years old woman named Na Mi Rae (Choi Myung Gil) from 2038, a television broadcast writer, travels back in time to meet her 32-year-old self (Yoon Eun Hye) from 2013 with the goal of preventing her marriage to Kim Shin (Lee Dong Gun) and thus send her past self down a different path in life.



Main Cast

Yoon Eun Hye as Na Mi Rae (32)

Choi Myung Gil as Na Mi Rae's future self (57)

Lee Dong Gun as Kim Shin (35)

Jung Yong Hwa as Park Se Joo (28)

Han Chae Ah as Seo Yoo Kyung (28)

People in Broadcasting Station

Oh Jung Se as Na Joo Hyun (35)

Lee Mi Do as Bae Hyun Ah (30)

Ahn Se Ha as Lee Jae Soo (32)

Go Doo Shim as Lee Mi Ran (65)



SCREENSHOT





Video

ID : 0

Format : MPEG-4 Visual

Format profile : Advanced Simple@L5

Format settings, BVOP : No

Format settings, QPel : No

Format settings, GMC : No warppoints

Format settings, Matrix : Default (MPEG)

Codec ID : XVID

Codec ID/Hint : XviD

Duration : 1h 6mn

Bit rate : 1 391 Kbps

Width : 624 pixels

Height : 352 pixels

Display aspect ratio : 16:9

Frame rate : 29.970 fps

Color space : YUV

Chroma subsampling : 4:2:0

Bit depth : 8 bits

Scan type : Progressive

Compression mode : Lossy

Bits/(Pixel*Frame) : 0.211

Stream size : 660 MiB (87%)

Writing library : XviD 1.2.1 (UTC 2008-12-04)



Audio

ID : 1

Format : MPEG Audio

Format version : Version 1

Format profile : Layer 3

Mode : Joint stereo

Mode extension : MS Stereo

Codec ID : 55

Codec ID/Hint : MP3

Duration : 1h 6mn

Bit rate mode : Constant

Bit rate : 128 Kbps

Channel(s) : 2 channels

Sampling rate : 48.0 KHz

Compression mode : Lossy

Stream size : 60.8 MiB (8%)

Alignment : Aligned on interleaves

Writing library : LAME3.98.2

Language : un

Torrent location

http://extratorrent.cc/torrent/3276580/Marry+Him+If+You+Dare+E06+HDTV+XVID+LIMO.html

Trackers

Updated 2 weeks ago

1. http://94.228.192.98/announce

2. http://bigfoot1942.sektori.org:6969/announce

3. http://announce.torrentsmd.com:8080/announce

4. http://tracker.nwps.ws:6969/announce

5. udp://11.rarbg.me:80/announce

6. udp://open.demonii.com:1337/announce

7. udp://tracker.istole.it:80

8. udp://tracker.istole.it:80/announce

9. udp://9.rarbg.com:2710/announce

Comments

You must log in to add a comment.

Embed Code

Sharing Widget

Related torrents

FILENAME SIZE SEEDS PEERS ADDED UPD
[i] Bruno Mars - Marry You.mp3 3.58 MB 587 2 2 years 1 year
[i] Ushi Must Marry (2013) DVDRip NL Subs DutchReleaseTeam 704.3 MB 269 41 4 months 4 months
[i] Someone.Marry.Barry.2014.720p.WEB-DL.H264-PublicHD 2.69 GB 211 52 2 months 1 month
[i] Ushi Must Marry (2013) DVDrip (xvid) NL Subs. DMT 1.46 GB 166 4 4 months 4 months
[i] Perfect Blonde Teen - Marry Queen 349.65 MB 157 8 2 years 1 year
[i] Bruno Mars - Marry You.mp3 7.02 MB 130 1 3 years 1 year
[i] Lady GaGa - Marry the Night [2011-Single][SW] 10.55 MB 112 0 2 years 1 year
[i] AmateurAllure - Marry 701.57 MB 96 33 7 months 7 months
[i] WhenGirlsPlay.13.03.15.Marry.Queen.And.Taylor.Vixen.Spying.On.Yo 1.06 GB 80 161 1 year 1 year
[i] Someone.Marry.Barry.2014.HDRip.XviD.AC3-EVO 906.57 MB 72 39 2 months 1 month

Top Series ( auto generated report )

FILENAME SIZE SEEDS PEERS ADDED UPD
[i] Game of Thrones S04E02 HDTV x264-2HD[ettv]
Series - Misc , Quality: Audio 9/10 - Video 9/10
467.57 MB 69535 7098 3 days 1 day
[i] Game of Thrones S04E02 720p HDTV x264-2HD [eztv]
Series - Misc , Quality: Audio 9/10 - Video 9/10
1.18 GB 23907 2548 2 days 22 hours
[i] Marvels Agents of S H I E L D S01E18 HDTV x264-KILLERS [eztv]
Series - Misc , Quality: Audio 9/10 - Video 9/10
264.15 MB 22988 11505 1 day 21 hours
[i] Game of Thrones S04E02 HDTV x264-2HD
Series - Misc , Quality: Audio 9/10 - Video 9/10
467.65 MB 14877 1373 3 days 1 day
[i] Supernatural S09E18 HDTV x264-LOL [eztv]
Series - Misc , Quality: Audio 9/10 - Video 9/10
199.63 MB 14744 7251 21 hours 21 hours
[i] Greys Anatomy S10E19 HDTV x264-LOL [eztv] 215.63 MB 14672 1697 16 hours 16 hours
[i] Game.of.Thrones.S04E02.720p.HDTV.x264-2HD [PublicHD]
Series - Misc , Quality: Audio 9/10 - Video 9/10
1.18 GB 14574 9681 3 days 2 days
[i] Revenge S03E19 HDTV x264-LOL [eztv]
Series - Misc , Quality: Audio 9/10 - Video 9/10
260.15 MB 14234 4924 2 days 2 days
[i] The Following S02E13 HDTV x264-LOL [eztv]
Series - Misc , Quality: Audio 9/10 - Video 9/10
300.65 MB 13347 3732 1 day 1 day
[i] Once Upon a Time S03E17 HDTV x264-LOL [eztv]
Series - Misc , Quality: Audio 9/10 - Video 9/10
277.15 MB 12440 4476 2 days 2 days