Bit Torrent Scene a public file sharing platform Home Upload Categories Collections Blog About

Marry Him If You Dare E06 HDTV XVID LIMO

DOWNLOAD TORRENT

Posted on October 30, 2013 in Series » Misc , downloaded 2 times , verified torrent

Size: 674.82 MB , Seeds: 1 , Peers: 0 ( Updated March 29, 2014 - Refresh )

* Download via Magnet Link

* To download files you need a Bittorrent Client , * How to download torrents from Bit Torrent Scene?

advertising ( remove )

External Info

Subtitles | Trailer | Wikipedia | Other Info

Internal Files

Marry.Him.If.You.Dare.E06.131029.HDTV.XviD-LIMO
Marry.Him.If.You.Dare.E06.131029.HDTV.XviD-LIMO.avi   674.49 MB
Marry.Him.If.You.Dare.E06.131029.HDTV.XviD-LIMO.srt   62.8 KB
ViSiT@@ AreaFiles.org.txt   404 Byte

Hash Code

f7a7aed6a5f51426eee8d748b59479b83b6b3c5c

Description

SCREENSHOT



Details



Title: 미래의 선택 / Mi Rae-ui Suntaek

Also known as: Mi Rae's Choice / Future's Choice / The Choice of the Future / The Future Choice

Genre: Romance, comedy, time travel, fantasy

Episodes: TBA

Broadcast network: KBS2

Broadcast period: 2013-Oct-14 to 2013-Dec-??

Air time: Monday & Tuesday 22:00

Subtitles English



Synopsis

32 years old for woman is an age which may be little too late to start something new or little too early to give up something. The 'future-self' comes to ‘me’ today and gives advices about life and marriage. The future-self is trying to bring better life by helping her to meet a perfect spouse.--KBS World

This drama will tell the story about a 57 years old woman named Na Mi Rae (Choi Myung Gil) from 2038, a television broadcast writer, travels back in time to meet her 32-year-old self (Yoon Eun Hye) from 2013 with the goal of preventing her marriage to Kim Shin (Lee Dong Gun) and thus send her past self down a different path in life.



Main Cast

Yoon Eun Hye as Na Mi Rae (32)

Choi Myung Gil as Na Mi Rae's future self (57)

Lee Dong Gun as Kim Shin (35)

Jung Yong Hwa as Park Se Joo (28)

Han Chae Ah as Seo Yoo Kyung (28)

People in Broadcasting Station

Oh Jung Se as Na Joo Hyun (35)

Lee Mi Do as Bae Hyun Ah (30)

Ahn Se Ha as Lee Jae Soo (32)

Go Doo Shim as Lee Mi Ran (65)



SCREENSHOT





Video

ID : 0

Format : MPEG-4 Visual

Format profile : Advanced Simple@L5

Format settings, BVOP : No

Format settings, QPel : No

Format settings, GMC : No warppoints

Format settings, Matrix : Default (MPEG)

Codec ID : XVID

Codec ID/Hint : XviD

Duration : 1h 6mn

Bit rate : 1 391 Kbps

Width : 624 pixels

Height : 352 pixels

Display aspect ratio : 16:9

Frame rate : 29.970 fps

Color space : YUV

Chroma subsampling : 4:2:0

Bit depth : 8 bits

Scan type : Progressive

Compression mode : Lossy

Bits/(Pixel*Frame) : 0.211

Stream size : 660 MiB (87%)

Writing library : XviD 1.2.1 (UTC 2008-12-04)



Audio

ID : 1

Format : MPEG Audio

Format version : Version 1

Format profile : Layer 3

Mode : Joint stereo

Mode extension : MS Stereo

Codec ID : 55

Codec ID/Hint : MP3

Duration : 1h 6mn

Bit rate mode : Constant

Bit rate : 128 Kbps

Channel(s) : 2 channels

Sampling rate : 48.0 KHz

Compression mode : Lossy

Stream size : 60.8 MiB (8%)

Alignment : Aligned on interleaves

Writing library : LAME3.98.2

Language : un

Torrent location

http://extratorrent.cc/torrent/3276580/Marry+Him+If+You+Dare+E06+HDTV+XVID+LIMO.html

Scrape History ( seeds + peers )

Trackers

Refresh Leechers : Updated March 29, 2014

1. http://94.228.192.98/announce

2. http://bigfoot1942.sektori.org:6969/announce

3. http://announce.torrentsmd.com:8080/announce

4. http://tracker.nwps.ws:6969/announce

5. udp://11.rarbg.me:80/announce

6. udp://open.demonii.com:1337/announce

7. udp://tracker.istole.it:80

8. udp://tracker.istole.it:80/announce

9. udp://9.rarbg.com:2710/announce

Comments

You must log in to add a comment.

Embed Code

Sharing Widget

Related torrents

FILENAME SIZE SEEDS PEERS ADDED UPD
[i] Bruno Mars - Marry You.mp3 3.58 MB 587 2 2 years 1 year
[i] Jason Derulo - Marry Me {2013-Single} 8.77 MB 261 1 2 months 4 weeks
[i] Perfect Blonde Teen - Marry Queen 349.65 MB 157 8 2 years 1 year
[i] Bruno Mars - Marry You.mp3 7.02 MB 130 1 3 years 1 year
[i] Lady GaGa - Marry the Night [2011-Single][SW] 10.55 MB 112 0 2 years 1 year
[i] AmateurAllure - Marry 701.57 MB 96 33 12 months 11 months
[i] RealityKings - Marry Queen 428.57 MB 38 11 1 year 1 year
[i] Creamy Holes 2 - Marry Queen.avi 246.07 MB 33 9 3 months 4 weeks
[i] I.Wanna.Marry.Harry.S01E06.HDTV.XviD-AFG 346.57 MB 31 1 2 months 2 days
[i] Ushi Must Marry (2013) DVDRip NL Subs DutchReleaseTeam 704.3 MB 30 7 8 months 2 months

Top Series ( auto generated report )

FILENAME SIZE SEEDS PEERS ADDED UPD
[i] Under the Dome S02E09 HDTV x264-LOL[ettv]
Series - Misc , Quality: Audio 9/10 - Video 9/10
268.57 MB 14255 2662 1 day 8 hours
[i] Pretty Little Liars S05E12 HDTV x264-LOL[ettv] 231.57 MB 8493 4882 7 hours 1 hour
[i] The.66th.Annual.Primetime.Emmy.Awards.2014.HDTV.x264-2HD[rartv]
Series - Misc , Quality: Audio 9/10 - Video 9/10
842.57 MB 4479 2509 1 day 1 hour
[i] Tyrant S01E10 HDTV x264-2HD[ettv] 323.07 MB 3504 2995 5 hours 1 hour
[i] WWE Monday Night Raw 2014 08 25 WS PDTV x264-RKOFAN1990 -={SPARR
Series - Misc , Quality: Audio 9/10 - Video 9/10
1.38 GB 3198 1362 1 day 4 hours
[i] Masterchef US S05E14 HDTV x264-LOL[ettv]
Series - Misc , Quality: Audio 9/10 - Video 9/10
396.07 MB 2782 473 1 day 6 hours
[i] Under.the.Dome.S02E09.720p.HDTV.X264-DIMENSION[rartv] 938.07 MB 2690 586 1 day 8 hours
[i] Under the Dome S02E09 HDTV x264-LOL [eztv] 268.65 MB 2328 1445 9 hours 6 hours
[i] True Blood S07E10 HDTV x264-KILLERS [eztv] 533.65 MB 2247 1565 8 hours 5 hours
[i] Falling Skies S04E10 HDTV x264-KILLERS [eztv] 261.15 MB 1803 879 10 hours 7 hours