Bit Torrent Scene a public file sharing platform Home Upload Categories Collections Blog About

Massage Girl 18 - Aletta Ocean (XXX)(iPod,PSP,Zune)

DOWNLOAD TORRENT

Posted on February 8, 2011 in Misc » Others , downloaded 168 times

Size: 71.91 MB , Seeds: 2 , Peers: 0 ( Updated October 25, 2014 - Refresh )

* Download via Magnet Link , * To download files you need a Bittorrent Client , * How to download torrents from Bit Torrent Scene?

advertising ( remove )

External Info

Trailer | Wikipedia | Other Info

Internal Files

Massage Girl 18 - Aletta Ocean
Massage Girl 18 - Aletta Ocean.jpg   251.8 KB
Massage Girl 18 - Aletta Ocean.m4v   71.53 MB

Hash Code

c1218f916c5676da84bae25c7c219ebcf40f4908

Description



Screenshot

http://c043a917.picbucks.com

Video
ID : 1
Format : AVC
Format/Info : Advanced Video Codec
Format profile : Baseline@L2.1
Format settings, CABAC : No
Format settings, ReFrames : 2 frames
Codec ID : avc1
Codec ID/Info : Advanced Video Coding
Duration : 21mn 23s
Bit rate mode : Variable
Bit rate : 400 Kbps
Width : 480 pixels
Height : 272 pixels
Display aspect ratio : 16:9
Frame rate mode : Variable
Frame rate : 23.976 fps
Minimum frame rate : 23.974 fps
Maximum frame rate : 23.981 fps
Color space : YUV
Chroma subsampling : 4:2:0
Bit depth : 8 bits
Scan type : Progressive
Bits/(Pixel*Frame) : 0.128
Stream size : 61.2 MiB (86%)
Writing library : x264 core 112

Audio
ID : 2
Format : AAC
Format/Info : Advanced Audio Codec
Format profile : LC
Codec ID : 40
Duration : 21mn 23s
Bit rate mode : Variable
Bit rate : 64.0 Kbps
Maximum bit rate : 74.4 Kbps
Channel(s) : 2 channels
Channel positions : Front: L R
Sampling rate : 48.0 KHz
Compression mode : Lossy
Stream size : 9.79 MiB (14%)
Language : English

Screenshot

http://c043a917.picbucks.com

More Torrents...

http://thepiratebay.org/user/punter21/

Scrape History ( seeds + peers )

Trackers

Refresh Leechers : Updated October 25, 2014

1. http://tracker.thepiratebay.org/announce

2. udp://tracker.thepiratebay.org:80/announce

3. udp://tracker.openbittorrent.com:80/announce

4. udp://tracker.publicbt.com:80/announce

5. http://tracker.publicbt.com/announce

6. http://exodus.1337x.org/announce

Comments

You must log in to add a comment.

Embed Code

Sharing Widget