Bit Torrent Scene a public file sharing platform Home Upload Categories Collections Blog About

{NDS Movie} Richie Rich.DVDrip-Cradle

DOWNLOAD TORRENT

Posted on April 1, 2011 in Games » Nintendo DS , downloaded 740 times , verified torrent

Size: 281.65 MB , Seeds: 0 , Peers: 1 ( Updated March 30, 2013 - Refresh )

* Download via Magnet Link

* To download files you need a Bittorrent Client , * How to download torrents from Bit Torrent Scene?

advertising ( remove )

External Info

Trailer | Wikipedia | Other Info

Internal Files

{NDS Movie} Richie Rich.DVDrip-Cradle
Richie Rich.dvdrip.dpg   281.09 MB
cradle.nfo   4.15 KB
1337x.org   48 Byte

Hash Code

2b597b00fbe55469ffc723230498215b77451684

Description








-------------------------------

Complete name : {NDS Movie} Richie Rich.DVDrip-Cradle

Format : DPG

Format/Info : Nintendo DS

File size : 281 MiB

Duration : 1h 34mn

Overall bit rate : 416 Kbps



Video

Format : MPEG Video

Format version : Version 1

Format settings, BVOP : No

Format settings, Matrix : Default

Duration : 1s 667ms

Bit rate mode : Variable

Bit rate : 256 Kbps

Width : 256 pixels

Height : 192 pixels

Display aspect ratio : 4:3

Frame rate : 15.000 fps

Original frame rate : 23.976 fps

Color space : YUV

Bit depth : 8 bits

Scan type : Progressive

Compression mode : Lossy

Bits/(Pixel*Frame) : 0.347

Stream size : 173 MiB (62%)



Audio

Format : MPEG Audio

Format version : Version 1

Format profile : Layer 2

Duration : 1h 34mn

Bit rate mode : Constant

Bit rate : 160 Kbps

Channel(s) : 2 channels

Sampling rate : 32.0 KHz

Compression mode : Lossy

Stream size : 108 MiB (38%)

--------------------------------------------------------------------------------











NOTES:

Release Date··[ 26 May 1995 (UK)

IMDB Rating···[ 4.7/10

Genre·········[ Comedy | Family

LINK .........[ http://www.imdb.com/title/tt0110989/



Director:Donald Petrie

Writers:Neil Tolkin (story), Tom S. Parker (screenplay),

Stars:Macaulay Culkin, Edward Herrmann and John Larroquette

Language: English



The richest kid in the world, Richie Rich, has everything he wants, except companionship.

While representing his father at a factory opening



GREETS:

IMAGiNE,Noir,FLAWL3SS,ViSiON,FUSiON,Rx,SecretMyth,BirdFlu,ELEKTRI4KA,SERENiTY,and Autotron

And to all the other p2p grps past and present





THE MORE SEEDS MEANS MORE DS MOVIES RELEASES ! ! ! ! !



all my files are cleaned with




Scrape History ( seeds + peers )

Trackers

Refresh Leechers : Updated March 30, 2013

1. http://nemesis.1337x.org/announce

Comments

You must log in to add a comment.

Embed Code

Sharing Widget

Top Games ( auto generated report )

FILENAME SIZE SEEDS PEERS ADDED UPD
[i] Endless.Legend-RELOADED 1.82 GB 1171 666 1 day 21 hours
[i] Wasteland.2-CODEX 21.52 GB 800 8360 18 hours 16 hours
[i] Total.War.ROME.II.Emperor.Edition-RELOADED 11.82 GB 335 1442 2 days 1 day
[i] Final Fantasy IV [RELOADED] 624.3 MB 332 112 23 hours 42 min
[i] Shadowrun Dragonfall Directors Cut-CODEX 6.15 GB 328 476 2 days 1 day
[i] NARUTO SHIPPUDEN: Ultimate Ninja STORM Revolution (2014) РС | RePack by RG Freedom 5.81 GB 273 99 2 days 1 day
[i] Wasteland 2 2014 DLC MULTi9 RePack-SEYTER 2.81 GB 201 455 19 hours 17 hours
[i] Grim Facade 5 The Artist and The Pretender CE 785.07 MB 168 71 1 day 22 hours
[i] Road Redemption RePack By MAXAGENT Uploaded-NASWARI+ZOHAIB 863.3 MB 153 161 1 day 5 hours
[i] Endless Legend-RELOADED 1.82 GB 129 36 1 day 17 hours