Bit Torrent Scene a public file sharing platform Home Upload Categories Collections Blog About

{NDS Movie} Richie Rich.DVDrip-Cradle

DOWNLOAD TORRENT

Posted on April 1, 2011 in Games » Nintendo DS , downloaded 740 times , verified torrent

Size: 281.65 MB , Seeds: 0 , Peers: 0 ( Updated October 31, 2014 )

* Download via Magnet Link

* To download files you need a Bittorrent Client , * How to download torrents from Bit Torrent Scene?

advertising ( remove )

External Info

Trailer | Wikipedia | Other Info

Internal Files

{NDS Movie} Richie Rich.DVDrip-Cradle
Richie Rich.dvdrip.dpg   281.09 MB
cradle.nfo   4.15 KB
1337x.org   48 Byte

Hash Code

2b597b00fbe55469ffc723230498215b77451684

Description








-------------------------------

Complete name : {NDS Movie} Richie Rich.DVDrip-Cradle

Format : DPG

Format/Info : Nintendo DS

File size : 281 MiB

Duration : 1h 34mn

Overall bit rate : 416 Kbps



Video

Format : MPEG Video

Format version : Version 1

Format settings, BVOP : No

Format settings, Matrix : Default

Duration : 1s 667ms

Bit rate mode : Variable

Bit rate : 256 Kbps

Width : 256 pixels

Height : 192 pixels

Display aspect ratio : 4:3

Frame rate : 15.000 fps

Original frame rate : 23.976 fps

Color space : YUV

Bit depth : 8 bits

Scan type : Progressive

Compression mode : Lossy

Bits/(Pixel*Frame) : 0.347

Stream size : 173 MiB (62%)



Audio

Format : MPEG Audio

Format version : Version 1

Format profile : Layer 2

Duration : 1h 34mn

Bit rate mode : Constant

Bit rate : 160 Kbps

Channel(s) : 2 channels

Sampling rate : 32.0 KHz

Compression mode : Lossy

Stream size : 108 MiB (38%)

--------------------------------------------------------------------------------











NOTES:

Release Date··[ 26 May 1995 (UK)

IMDB Rating···[ 4.7/10

Genre·········[ Comedy | Family

LINK .........[ http://www.imdb.com/title/tt0110989/



Director:Donald Petrie

Writers:Neil Tolkin (story), Tom S. Parker (screenplay),

Stars:Macaulay Culkin, Edward Herrmann and John Larroquette

Language: English



The richest kid in the world, Richie Rich, has everything he wants, except companionship.

While representing his father at a factory opening



GREETS:

IMAGiNE,Noir,FLAWL3SS,ViSiON,FUSiON,Rx,SecretMyth,BirdFlu,ELEKTRI4KA,SERENiTY,and Autotron

And to all the other p2p grps past and present





THE MORE SEEDS MEANS MORE DS MOVIES RELEASES ! ! ! ! !



all my files are cleaned with




Scrape History ( seeds + peers )

Trackers

Refresh Leechers : Updated October 31, 2014

1. http://nemesis.1337x.org/announce

Comments

You must log in to add a comment.

Embed Code

Sharing Widget

Top Games ( auto generated report )

FILENAME SIZE SEEDS PEERS ADDED UPD
[i] Farming.Simulator.15-CODEX 2.74 GB 2230 2401 1 day 3 hours
[i] Lords Of The Fallen Digital Deluxe Edition-RG GAMERS 14.88 GB 1582 1351 5 hours 3 hours
[i] 3DMGAME-Farming Simulator 15 v1.1.0.0 Cracked-3DM 1.23 GB 1415 580 23 hours 38 min
[i] 3DMGAME-Lords Of The Fallen Cracked-3DM 14.92 GB 790 2398 2 days 1 day
[i] The Sims 4 [R.G. Mechanics] 6.38 GB 715 467 1 day 7 hours
[i] Call Of Duty Advanced Warfare XBOX360-iMARS 15.93 GB 693 3696 1 day 5 hours
[i] Icewind.Dale.Enhanced.Edition-CODEX 2.65 GB 589 507 22 hours 5 hours
[i] WWE.2K15.XBOX360-iMARS 8.14 GB 465 402 1 day 7 hours
[i] Plants Vs Zombies Full Pc Game 52.64 MB 454 35 20 hours 1 hour
[i] Call of Duty Advanced Warfare PS3-iMARS 13.42 GB 356 2059 1 day 5 hours