Home Upload Categories Collections Blog About

{NDS Movie} Richie Rich.DVDrip-Cradle

DOWNLOAD TORRENT

Posted 3 years ago in Games » Nintendo DS , downloaded 740 times , verified torrent

Size: 281.65 MB , Seeds: 0 , Peers: 1

Updated 1 year ago

* Download via Magnet Link , * Anonymous Download with Torrent Privacy

* To download files you need a Bittorrent Client , * How to download torrents from BitTorrentScene?

advertising ( remove )

Scrape History ( seeds + peers )

External Info

Trailer | Wikipedia | Other Info

Internal Files

{NDS Movie} Richie Rich.DVDrip-Cradle
Richie Rich.dvdrip.dpg   281.09 MB
cradle.nfo   4.15 KB
1337x.org   48 Byte

Hash Code

2b597b00fbe55469ffc723230498215b77451684

Description








-------------------------------

Complete name : {NDS Movie} Richie Rich.DVDrip-Cradle

Format : DPG

Format/Info : Nintendo DS

File size : 281 MiB

Duration : 1h 34mn

Overall bit rate : 416 Kbps



Video

Format : MPEG Video

Format version : Version 1

Format settings, BVOP : No

Format settings, Matrix : Default

Duration : 1s 667ms

Bit rate mode : Variable

Bit rate : 256 Kbps

Width : 256 pixels

Height : 192 pixels

Display aspect ratio : 4:3

Frame rate : 15.000 fps

Original frame rate : 23.976 fps

Color space : YUV

Bit depth : 8 bits

Scan type : Progressive

Compression mode : Lossy

Bits/(Pixel*Frame) : 0.347

Stream size : 173 MiB (62%)



Audio

Format : MPEG Audio

Format version : Version 1

Format profile : Layer 2

Duration : 1h 34mn

Bit rate mode : Constant

Bit rate : 160 Kbps

Channel(s) : 2 channels

Sampling rate : 32.0 KHz

Compression mode : Lossy

Stream size : 108 MiB (38%)

--------------------------------------------------------------------------------











NOTES:

Release Date··[ 26 May 1995 (UK)

IMDB Rating···[ 4.7/10

Genre·········[ Comedy | Family

LINK .........[ http://www.imdb.com/title/tt0110989/



Director:Donald Petrie

Writers:Neil Tolkin (story), Tom S. Parker (screenplay),

Stars:Macaulay Culkin, Edward Herrmann and John Larroquette

Language: English



The richest kid in the world, Richie Rich, has everything he wants, except companionship.

While representing his father at a factory opening



GREETS:

IMAGiNE,Noir,FLAWL3SS,ViSiON,FUSiON,Rx,SecretMyth,BirdFlu,ELEKTRI4KA,SERENiTY,and Autotron

And to all the other p2p grps past and present





THE MORE SEEDS MEANS MORE DS MOVIES RELEASES ! ! ! ! !



all my files are cleaned with




Trackers

Updated 1 year ago

1. http://nemesis.1337x.org/announce

Comments

You must log in to add a comment.

Embed Code

Sharing Widget

Top Games ( auto generated report )

FILENAME SIZE SEEDS PEERS ADDED UPD
[i] Age Of Empires II+Age of Empires 2 - The Conquerors Expansion+st 597.3 MB 811 56 8 hours 8 hours
[i] Alien Rage Unlimited [MULTI9][PCDVD][PROPHET] 3.7 GB 670 1016 1 day 12 hours
[i] Age of Empires 3 + Both Expansions - Fully Updated 2.87 GB 396 61 8 hours 8 hours
[i] Age of Empires 1 (pc, fully working) 230.57 MB 212 16 8 hours 8 hours
[i] Off the Record The Italian Affair Collectors Edition-Wendy99 1.31 GB 207 463 2 days 1 day
[i] Asphalt 8 Airborne v1.2.0 [MOD][Apk+obb][MafiaSSS][M.A.W] 848.3 MB 137 23 2 hours 2 hours
[i] Blood Bowl Chaos Edition [MULTI7][PCDVD][PROPHET] 3.08 GB 126 293 1 day 12 hours
[i] Collapse-FTS 2.68 GB 118 65 3 days 1 day
[i] Football Manager 2014 FIX/Kit Pack/Logo pack/Cut Out Faces Megap 9.85 GB 107 55 10 hours 10 hours
[i] Age of Empires 3 [Full][Working][Tested] - Khaos Industries 1.68 GB 106 18 8 hours 8 hours