Bit Torrent Scene a public file sharing platform Home Upload Categories Collections Blog About

{NDS Movie} Richie Rich.DVDrip-Cradle

DOWNLOAD TORRENT

Posted on April 1, 2011 in Games » Nintendo DS , downloaded 740 times , verified torrent

Size: 281.65 MB , Seeds: 0 , Peers: 0 ( Updated October 31, 2014 - Refresh )

* Download via Magnet Link , * To download files you need a Bittorrent Client , * How to download torrents from Bit Torrent Scene?

advertising ( remove )

External Info

Trailer | Wikipedia | Other Info

Internal Files

{NDS Movie} Richie Rich.DVDrip-Cradle
Richie Rich.dvdrip.dpg   281.09 MB
cradle.nfo   4.15 KB
1337x.org   48 Byte

Hash Code

2b597b00fbe55469ffc723230498215b77451684

Description








-------------------------------

Complete name : {NDS Movie} Richie Rich.DVDrip-Cradle

Format : DPG

Format/Info : Nintendo DS

File size : 281 MiB

Duration : 1h 34mn

Overall bit rate : 416 Kbps



Video

Format : MPEG Video

Format version : Version 1

Format settings, BVOP : No

Format settings, Matrix : Default

Duration : 1s 667ms

Bit rate mode : Variable

Bit rate : 256 Kbps

Width : 256 pixels

Height : 192 pixels

Display aspect ratio : 4:3

Frame rate : 15.000 fps

Original frame rate : 23.976 fps

Color space : YUV

Bit depth : 8 bits

Scan type : Progressive

Compression mode : Lossy

Bits/(Pixel*Frame) : 0.347

Stream size : 173 MiB (62%)



Audio

Format : MPEG Audio

Format version : Version 1

Format profile : Layer 2

Duration : 1h 34mn

Bit rate mode : Constant

Bit rate : 160 Kbps

Channel(s) : 2 channels

Sampling rate : 32.0 KHz

Compression mode : Lossy

Stream size : 108 MiB (38%)

--------------------------------------------------------------------------------











NOTES:

Release Date··[ 26 May 1995 (UK)

IMDB Rating···[ 4.7/10

Genre·········[ Comedy | Family

LINK .........[ http://www.imdb.com/title/tt0110989/



Director:Donald Petrie

Writers:Neil Tolkin (story), Tom S. Parker (screenplay),

Stars:Macaulay Culkin, Edward Herrmann and John Larroquette

Language: English



The richest kid in the world, Richie Rich, has everything he wants, except companionship.

While representing his father at a factory opening



GREETS:

IMAGiNE,Noir,FLAWL3SS,ViSiON,FUSiON,Rx,SecretMyth,BirdFlu,ELEKTRI4KA,SERENiTY,and Autotron

And to all the other p2p grps past and present





THE MORE SEEDS MEANS MORE DS MOVIES RELEASES ! ! ! ! !



all my files are cleaned with




Scrape History ( seeds + peers )

Trackers

Refresh Leechers : Updated October 31, 2014

1. http://nemesis.1337x.org/announce

Comments

You must log in to add a comment.

Embed Code

Sharing Widget

Top Games ( auto generated report )

FILENAME SIZE SEEDS PEERS ADDED UPD
[i] Far.Cry.4.[v1.03]Proper.[RELOADED].Repack-R.G.Mechanics 13.3 GB 3760 4237 3 days 1 day
[i] Football Manager 2015 v15.1.3 Cracked-3DM 1.04 GB 2863 1366 2 days 1 day
[i] Far.Cry.4.Proper-RELOADED 27.2 GB 676 4249 3 days 1 day
[i] Shadows.Heretic.Kingdoms.Book.One.Devourer.of.Souls-FLT 2.74 GB 669 521 1 day 12 hours
[i] PES 2015 / Pro Evolution Soccer 2015 (2014) PC | RePack - R.G. Catalyst 3.31 GB 656 317 2 days 1 day
[i] Never Alone-CODEX 2.66 GB 606 322 2 days 12 hours
[i] Escape.Dead.Island-FLT 7.71 GB 509 817 2 days 12 hours
[i] Far.Cry.4.Proper-RELOADED 27.2 GB 505 2732 3 days 13 hours
[i] Football Manager 2015 PC full game ^^nosTEAM^^ 1.22 GB 684 61 23 hours 28 min
[i] Escape Dead Island Repack By Xatab Uploaded-NASWARI+ZOHAIB 3.15 GB 404 204 2 days 1 day