Bit Torrent Scene a public file sharing platform Home Upload Categories Collections Blog About

{NDS Movie} Richie Rich.DVDrip-Cradle

DOWNLOAD TORRENT

Posted on April 1, 2011 in Games » Nintendo DS , downloaded 740 times , verified torrent

Size: 281.65 MB , Seeds: 0 , Peers: 0 ( Updated October 31, 2014 - Refresh )

* Download via Magnet Link , * To download files you need a Bittorrent Client , * How to download torrents from Bit Torrent Scene?

advertising ( remove )

External Info

Trailer | Wikipedia | Other Info

Internal Files

{NDS Movie} Richie Rich.DVDrip-Cradle
Richie Rich.dvdrip.dpg   281.09 MB
cradle.nfo   4.15 KB
1337x.org   48 Byte

Hash Code

2b597b00fbe55469ffc723230498215b77451684

Description








-------------------------------

Complete name : {NDS Movie} Richie Rich.DVDrip-Cradle

Format : DPG

Format/Info : Nintendo DS

File size : 281 MiB

Duration : 1h 34mn

Overall bit rate : 416 Kbps



Video

Format : MPEG Video

Format version : Version 1

Format settings, BVOP : No

Format settings, Matrix : Default

Duration : 1s 667ms

Bit rate mode : Variable

Bit rate : 256 Kbps

Width : 256 pixels

Height : 192 pixels

Display aspect ratio : 4:3

Frame rate : 15.000 fps

Original frame rate : 23.976 fps

Color space : YUV

Bit depth : 8 bits

Scan type : Progressive

Compression mode : Lossy

Bits/(Pixel*Frame) : 0.347

Stream size : 173 MiB (62%)



Audio

Format : MPEG Audio

Format version : Version 1

Format profile : Layer 2

Duration : 1h 34mn

Bit rate mode : Constant

Bit rate : 160 Kbps

Channel(s) : 2 channels

Sampling rate : 32.0 KHz

Compression mode : Lossy

Stream size : 108 MiB (38%)

--------------------------------------------------------------------------------











NOTES:

Release Date··[ 26 May 1995 (UK)

IMDB Rating···[ 4.7/10

Genre·········[ Comedy | Family

LINK .........[ http://www.imdb.com/title/tt0110989/



Director:Donald Petrie

Writers:Neil Tolkin (story), Tom S. Parker (screenplay),

Stars:Macaulay Culkin, Edward Herrmann and John Larroquette

Language: English



The richest kid in the world, Richie Rich, has everything he wants, except companionship.

While representing his father at a factory opening



GREETS:

IMAGiNE,Noir,FLAWL3SS,ViSiON,FUSiON,Rx,SecretMyth,BirdFlu,ELEKTRI4KA,SERENiTY,and Autotron

And to all the other p2p grps past and present





THE MORE SEEDS MEANS MORE DS MOVIES RELEASES ! ! ! ! !



all my files are cleaned with




Scrape History ( seeds + peers )

Trackers

Refresh Leechers : Updated October 31, 2014

1. http://nemesis.1337x.org/announce

Comments

You must log in to add a comment.

Embed Code

Sharing Widget

Top Games ( auto generated report )

FILENAME SIZE SEEDS PEERS ADDED UPD
[i] Construction Simulator 2015 [MULTI9][PCDVD][CODEX] 923.3 MB 778 213 1 day 21 hours
[i] Company of Heroes 2 Ardennes Assault DLC RePack-XaTaB 13.26 GB 709 631 2 days 1 day
[i] Warmachine.Tactics-RELOADED 3.8 GB 367 259 3 days 1 day
[i] Far.Cry.4.[v1.4].Repack-R.G.Mechanics 13.3 GB 335 1295 1 day 12 hours
[i] Tom Clancy's Ghost Recon: Future Soldier 13.78 GB 313 361 3 days 1 day
[i] Far.Cry.4.Update.v1.4-RELOADED 44.02 MB 261 11 1 day 10 hours
[i] Football Manager Handheld 2015 v6.0 Android 30.54 MB 230 55 1 day 11 hours
[i] Company of Heroes 2 Ardennes Assault-FTS 17.26 GB 177 923 3 days 2 days
[i] Minecraft - Pocket Edition v0.10.4 Android 12.97 MB 128 34 1 day 19 hours
[i] Condemned.Criminal.Origins.Repack-R.G.Mechanics 2.33 GB 110 93 1 day 8 hours