Home Upload Categories Collections Blog About

Ojciec chrzestny II - The Godfather: Part II *1974*[mini-HD.1080p.AAC.Custom.BluRay.x264-LEON 345] [Lektor PL]

DOWNLOAD TORRENT

Posted 4 months ago in Movies » Misc , downloaded 5 times , verified torrent

Size: 3.9 GB , Seeds: 19 , Peers: 16

Updated 3 months ago

* Download via Magnet Link , * Anonymous Download with Torrent Privacy

* To download files you need a Bittorrent Client , * How to download torrents from BitTorrentScene?

advertising ( remove )

Scrape History ( seeds + peers )

External Info

Subtitles | Trailer | Wikipedia | Other Info

Internal Files

[www.tnttorrent.info]The_Godfather_II_1974.PL.miniHD.Custom(Leon 345)
The_Godfather_II_1974.PL.miniHD.Custom(Leon 345).mp4   3.9 GB
big_1_b261be8fbfd0.jpg   86.17 KB
Open.txt   139 Byte

Hash Code

b2727e621f1d3671e702f6879294bbfb2953ec06

Description

Ojciec chrzestny II - The Godfather: Part II *1974*[mini-HD.1080p.AAC.Custom.BluRay.x264-LEON 345] [Lektor PL]

========================================================



IMDB http://www.imdb.com/title/tt0071562/?ref_=nv_sr_1



SCREENSHOT



Produkcja: USA

Gatunek: Dramat, Gangsterski

Data premiery: 1974-12-12 (Świat)

Reżyseria: Francis Ford Coppola

Scenariusz: Mario Puzo, Francis Ford Coppola

Zdjęcia: Gordon Willis

Muzyka: Carmine Coppola, Nino Rota

Na podstawie: powieści Mario Puzo



Ta mistrzowska kontynuacja "Ojca chrzestnego" opisuje losy dwóch pokoleń rodu Corleone w bezwzglÄ™dny dążeniu do władzy.

Francis Ford Coppola podzielił swą opowieść a dwie czÄ™ści: w pierwszej przedstawił losy młodego Don Vito, zagranego bezbłÄ™dnie przez Roberta De Niro; w drugiej - przejmowanie przez Michaela (Al. Pacino) władzy w mafijnej rodzinie.

Ponownie, gromadząc na planie wielu znakomitych artystów, Coppola stworzył bez wątpienia najlepszy sequel w dziejach kina.

Robert De Niro za swą kreacjÄ™ został nagrodzony Oscarem; film zdobył sześć nagród Akademii, w tym dla najlepszego filmu 1974 roku.



General



Format : MPEG-4

Format profile : Base Media

Codec ID : isom

File size : 3.90 GiB

Duration : 3h 22mn

Overall bit rate mode : Variable

Overall bit rate : 2 760 Kbps

Movie name : The_Godfather_II_1974 PL miniHD Custom(Leon 345)

Encoded date : UTC 2013-12-07 12:17:14

Tagged date : UTC 2013-12-07 12:22:32



Video

ID : 1

Format : AVC

Format/Info : Advanced Video Codec

Format profile : High@L4.1

Format settings, CABAC : Yes

Format settings, ReFrames : 2 frames

Codec ID : avc1

Codec ID/Info : Advanced Video Coding

Duration : 3h 22mn

Bit rate : 2 551 Kbps

Maximum bit rate : 20.3 Mbps

Width : 1 920 pixels

Height : 1 080 pixels

Display aspect ratio : 16:9 (1.78:1)

Frame rate mode : Constant

Frame rate : 23.976 fps

Color space : YUV

Chroma subsampling : 4:2:0

Bit depth : 8 bits

Scan type : Progressive

Bits/(Pixel*Frame) : 0.051

Stream size : 3.60 GiB (92%)

Title : Rip by Leon 345

Writing library : x264 core

Language : English

Encoded date : UTC 2013-12-07 12:17:14

Tagged date : UTC 2013-12-07 12:19:37

Color primaries : BT.709

Transfer characteristics : BT.709

Matrix coefficients : BT.709



Audio

ID : 2

Format : AAC

Format/Info : Advanced Audio Codec

Format profile : HE-AAC / LC

Codec ID : 40

Duration : 3h 22mn

Bit rate mode : Variable

Bit rate : 205 Kbps

Maximum bit rate : 261 Kbps

Channel(s) : 6 channels

Channel positions : Front: L C R, Side: L R, LFE

Sampling rate : 48.0 KHz / 24.0 KHz

Compression mode : Lossy

Stream size : 297 MiB (7%)

Title : AAC 5.1 Lektor PL Custom Leon 345

Language : Polish

Encoded date : UTC 2013-12-07 12:19:14

Tagged date : UTC 2013-12-07 12:19:37



Source [thx]:

A/V-The Godfather Collection: The Coppola Restoration (1972/1974/1990) {4-Disc Edition} Blu-ray 1080p AVC

Lektor PL- Leon 345 Custom 5.1 [Bluray 5.1 ENG + AC3 2.0 PL]

Torrent location

http://extratorrent.cc/torrent/3331171/Ojciec+chrzestny+II+-+The+Godfather%3A+Part+II+%2A1974%2A%5Bmini-HD.1080p.AAC.Custom.BluRay.x264-LEON+345%5D+%5BLektor+PL%5D.html

Trackers

Updated 3 months ago

1. http://tracker.torrenty.org:6969/announce

2. http://94.228.192.98/announce

3. http://newhorizons.twentyforty.me:2710/announce

4. http://exodus.desync.com:6969/announce

5. http://pimp4003-torrents.me:2710/announce.php

6. http://exodus.desync.com/announce

7. udp://9.rarbg.com:2710/announce

Comments

You must log in to add a comment.

Embed Code

Sharing Widget

Related torrents

FILENAME SIZE SEEDS PEERS ADDED UPD
[i] Ojciec chrzestny III - The Godfather: Part III *1990* [mini-HD.1080p.AAC.Custom.BluRay.x264-LEON 345] [Lektor PL] 3.94 GB 10 22 4 months 3 months

Top Movies ( auto generated report )

FILENAME SIZE SEEDS PEERS ADDED UPD
[i] The Physician (2013) 720p BrRip x264 - YIFY
Movies - Drama , Quality: Audio 9/10 - Video 9/10
990.5 MB 12058 5079 3 days 1 day
[i] 2 States (2014) - DVDScr - Xvid - 1CD - Team M2TV
Movies - Romance , Quality: Audio 7/10 - Video 7/10
701.07 MB 5953 16105 20 hours 20 hours
[i] The Art of the Steal (2013) 1080p BrRip x264 - YIFY
Movies - Comedy , Quality: Audio 9/10 - Video 9/10
1.24 GB 3765 1584 2 days 21 hours
[i] The Physician (2013) 1080p BrRip x264 - YIFY
Movies - Adventure , Quality: Audio 9/10 - Video 9/10
2.05 GB 3097 2356 3 days 1 day
[i] Five Thirteen [2013] BRRip XviD[AC3]-SaM[ETRG]
Movies - Drama , Quality: Audio 8/10 - Video 8/10
1.39 GB 3079 2116 3 days 1 day
[i] Devil's Due (2014) 1080p BrRip x264 - YIFY
Movies - Horror , Quality: Audio 9/10 - Video 9/10
1.23 GB 2318 880 2 days 23 hours
[i] Police Story 2013 720p BRRip x264 AC3-JYK 2.47 GB 1662 615 3 days 1 day
[i] Devil's Due (2014) 720p BrRip x264 - YIFY
Movies - Horror , Quality: Audio 9/10 - Video 9/10
698.5 MB 1654 786 3 days 1 day
[i] Need.For.Speed.2014.HD-TS.XVID.AC3.HQ.Hive-CM8 1.82 GB 1272 5637 1 day 20 hours
[i] G.B.F. (2013) 1080p BrRip x264 - YIFY 1.44 GB 1059 773 3 days 1 day