Home Upload Categories Collections Blog About

Rise of The Zombies [2013] - DVDRip - 1CD - Xvid - MP3 - E-Sub - [Team Telly] - eXclusive - seTul34

DOWNLOAD TORRENT

Posted 8 months ago in Movies » Misc , downloaded 8 times , verified torrent

Size: 719.3 MB , Seeds: 0 , Peers: 1

Updated 3 months ago

* Download via Magnet Link , * Anonymous Download with Torrent Privacy

* To download files you need a Bittorrent Client , * How to download torrents from BitTorrentScene?

advertising ( remove )

Scrape History ( seeds + peers )

External Info

Subtitles | Trailer | Wikipedia | Other Info

Internal Files

Rise of The Zombies [2013] - DVDRip - 1CD - Xvid - MP3 - E-Sub - [Team Telly] - eXclusive - seTul34
vlcsnap-2013-08-14-18h22m15s123.png   321.11 KB
vlcsnap-2013-08-14-18h26m17s235.png   318.51 KB
vlcsnap-2013-08-14-18h25m55s11.png   291.8 KB
vlcsnap-2013-08-14-18h22m26s230.png   279.53 KB
vlcsnap-2013-08-14-18h22m44s158.png   261.08 KB
vlcsnap-2013-08-14-18h26m01s74.png   259.17 KB
vlcsnap-2013-08-14-18h23m23s40.png   214.18 KB
vlcsnap-2013-08-14-18h21m49s112.png   160.11 KB
vlcsnap-2013-08-14-18h22m03s1.png   63.54 KB
[www.TellyTorrents.com] Rise of The Zombies [2013] - DVDRip - 1CD - Xvid - MP3 - E-Sub - [Team Telly] - eXclusive - seTul34.avi   708.35 MB
[www.TellyTorrents.com] SAMPLE - Rise of The Zombies [2013] - DVDRip - 1CD - Xvid - MP3 - E-Sub - [Team Telly] - eXclusive - seTul34.avi   7.91 MB
seTul34 Banner.png   168.21 KB
Torrent Posted On Extratorrent.com.txt   55 Byte
Torrent Downloaded From TellyTorrents.com.txt   53 Byte

Hash Code

950287c400ac5572b5ed5088bf953dd97719046f

Description



Ripping Credit : deep1007



SCREENSHOT





Rise of The Zombies *2013*

"DVDRip - 1Cd - Xvid - MP3 - E-Sub"

..:: Team Telly ::..

..:: eXclusive ~ seTul34 ::..




SCREENSHOT





~:Media Info:~



Code:
General
Complete name : Rise of The Zombies [2013] - seTul34.avi
Format : AVI
Format/Info : Audio Video Interleave
File size : 708 MiB
Duration : 1h 26mn
Overall bit rate : 1 143 Kbps

Video
ID : 0
Format : MPEG-4 Visual
Format profile : Simple@L3
Codec ID : XVID
Duration : 1h 26mn
Bit rate : 1 029 Kbps
Width : 640 pixels
Height : 272 pixels
Display aspect ratio : 2.35:1
Frame rate : 29.970 fps
Original frame rate : 29.000 fps
Stream size : 638 MiB (90%)

Audio
ID : 1
Format : MPEG Audio
Codec ID : 55
Codec ID/Hint : MP3
Duration : 1h 26mn
Bit rate mode : Constant
Bit rate : 96.0 Kbps
Channel(s) : 2 channels
Sampling rate : 44.1 KHz
`1Stream size : 59.5 MiB (8%)





Quality Releaser ~ seTul34 wrote:
Problem-* Screenshots Wont Be Clear As It Is When It's Downloaded!

Reason-* Screenshots Have Been Taken From Windows Server!

Solution-* Please Check The Sample Link Provided Below!





~:ScreenShot:~



SCREENSHOT

SCREENSHOT

SCREENSHOT

SCREENSHOT

SCREENSHOT

SCREENSHOT

SCREENSHOT

SCREENSHOT

SCREENSHOT







~: SAMPLE :~





Don't Forget To Say "Thanks"! And "Comment"! If You Like My Post!

If You Don't Reply, This Post Will "Die"!

Check Sample Before "Commenting"!





~: Super Seeding :~





Click Here To Add Review







SCREENSHOT



Torrent location

http://extratorrent.com/torrent/3178988/Rise+of+The+Zombies+%5B2013%5D+-+DVDRip+-+1CD+-++Xvid+-+MP3+-+E-Sub+-+%5BTeam+Telly%5D+-+eXclusive+-+seTul34.html

Trackers

Updated 3 months ago

1. http://www.tellytorrents.com:2710/00000029fe7382d89d15c09689b6983c/announce

2. udp://www.h33t.com:3310/announce

3. http://121.14.98.151:9090/announce

4. http://newhorizons.twentyforty.me:2710/announce

5. udp://tracker.istole.it:80/announce

6. udp://ipv4.tracker.harry.lu:80/announce

7. http://94.228.192.98/announce

8. udp://9.rarbg.com:2710/announce

9. udp://11.rarbg.me:80/announce

10. udp://10.rarbg.com/announce

11. udp://tracker.publicbt.com:80/announce

12. udp://tracker.openbittorrent.com:80/announce

13. udp://fr33dom.h33t.com:3310/announce

14. udp://tracker.publichd.eu/announce

15. udp://fr33domtracker.h33t.com:3310/announce

Comments

You must log in to add a comment.

Embed Code

Sharing Widget

Related torrents

FILENAME SIZE SEEDS PEERS ADDED UPD
[i] Rise Of The Zombies 2012 FRENCH DVDRip XviD-ARTEFAC 700.5 MB 261 22 4 months 4 months
[i] Rise Of The Zombies 2012 BDRip XviD-WiDE 701.07 MB 69 120 1 year 1 year
[i] Rise Of The Zombies 2012 FRENCH 720p BluRay AC3 x264-ARTEFAC 4.25 GB 49 11 4 weeks 4 weeks
[i] Rise Of Zombies (2013) - DVDRip - 1CD - ESubs - Hindi Movie - Bo 701.32 MB 32 87 8 months 8 months
[i] Rise of the Zombies [SYFY Original Movie] [2012/TVRIP/XViD] 676.07 MB 21 6 1 year 1 year
[i] Rise.Of.The.Zombies.2012.SWESUB.DVDRip.XviD.AC3-Graniten 801.3 MB 21 1 7 months 2 months
[i] Black Ops 2 Revolution Map Pack-Die Rise Zombies 1.89 GB 15 1 12 months 21 hours
[i] Rise.of.the.Zombies.2012.HDRip.XVID.AC3.HQ.Hive-CM8 1.39 GB 14 4 1 year 1 year
[i] Rise Of The Zombies (2012) BluRay 720p 700MB Ganool 700.07 MB 13 2 1 year 1 year
[i] Rise Of The Zombies (2012-ITA) DVDRip Hx264 iT@_CREW.mkv 939.57 MB 11 3 7 months 2 months

Top Movies ( auto generated report )

FILENAME SIZE SEEDS PEERS ADDED UPD
[i] The Railway Man (2013) 720p BrRip x264 - YIFY
Movies - Drama , Quality: Audio 8/10 - Video 9/10
866.5 MB 8197 2146 10 hours 10 hours
[i] Wolf Creek 2 (2013) HDRip Xvid Ac3-XYZ [P2PDL
Movies - Horror , Quality: Audio 7/10 - Video 7/10
1.24 GB 8062 3635 3 days 2 days
[i] Enemy [2013] HDRip XViD juggs[ETRG]
Movies - Thriller , Quality: Audio 9/10 - Video 9/10
704.32 MB 6646 6607 11 hours 11 hours
[i] Planes (2013) 720p BrRip x264 - YIFY
Movies - Animation , Quality: Audio 9/10 - Video 9/10
752.5 MB 6645 5086 1 day 1 day
[i] Khumba (2013) 1080p BrRip x264 - YIFY
Movies - Animation , Quality: Audio 9/10 - Video 9/10
1.24 GB 6491 3926 3 days 1 day
[i] The Patrol 2013 DVDRip XviD-HELLRAZ0R
Movies - Drama , Quality: Audio 8/10 - Video 8/10
707.07 MB 5483 5905 1 day 11 hours
[i] Extraction [2013] HDRip XViD juggs[ETRG]
Movies - Action , Quality: Audio 9/10 - Video 9/10
707.07 MB 5222 6190 1 day 11 hours
[i] Son of Batman 2014 FRENCH BRRiP XviD-CARPEDIEM.
Movies - Animation , Quality: Audio 8/10 - Video 8/10
701.07 MB 4278 859 3 days 1 day
[i] Planes (2013) 1080p BrRip x264 - YIFY
Movies - Animation , Quality: Audio 9/10 - Video 9/10
1.44 GB 3530 1946 2 days 4 hours
[i] Pup (2013) 720p BrRip x264 - YIFY
Movies - Animation , Quality: Audio 9/10 - Video 9/10
694.5 MB 3654 4235 17 hours 11 hours