Bit Torrent Scene a public file sharing platform Home Upload Categories Collections Blog About

Rise of The Zombies [2013] - DVDRip - 1CD - Xvid - MP3 - E-Sub - [Team Telly] - eXclusive - seTul34

DOWNLOAD TORRENT

Posted on August 15, 2013 in Movies » Misc , downloaded 8 times , verified torrent

Size: 719.3 MB , Seeds: 0 , Peers: 1 ( Updated January 12, 2014 - Refresh )

* Download via Magnet Link

* To download files you need a Bittorrent Client , * How to download torrents from Bit Torrent Scene?

advertising ( remove )

External Info

Subtitles | Trailer | Wikipedia | Other Info

Internal Files

Rise of The Zombies [2013] - DVDRip - 1CD - Xvid - MP3 - E-Sub - [Team Telly] - eXclusive - seTul34
vlcsnap-2013-08-14-18h22m15s123.png   321.11 KB
vlcsnap-2013-08-14-18h26m17s235.png   318.51 KB
vlcsnap-2013-08-14-18h25m55s11.png   291.8 KB
vlcsnap-2013-08-14-18h22m26s230.png   279.53 KB
vlcsnap-2013-08-14-18h22m44s158.png   261.08 KB
vlcsnap-2013-08-14-18h26m01s74.png   259.17 KB
vlcsnap-2013-08-14-18h23m23s40.png   214.18 KB
vlcsnap-2013-08-14-18h21m49s112.png   160.11 KB
vlcsnap-2013-08-14-18h22m03s1.png   63.54 KB
[www.TellyTorrents.com] Rise of The Zombies [2013] - DVDRip - 1CD - Xvid - MP3 - E-Sub - [Team Telly] - eXclusive - seTul34.avi   708.35 MB
[www.TellyTorrents.com] SAMPLE - Rise of The Zombies [2013] - DVDRip - 1CD - Xvid - MP3 - E-Sub - [Team Telly] - eXclusive - seTul34.avi   7.91 MB
seTul34 Banner.png   168.21 KB
Torrent Posted On Extratorrent.com.txt   55 Byte
Torrent Downloaded From TellyTorrents.com.txt   53 Byte

Hash Code

950287c400ac5572b5ed5088bf953dd97719046f

Description



Ripping Credit : deep1007



SCREENSHOT





Rise of The Zombies *2013*

"DVDRip - 1Cd - Xvid - MP3 - E-Sub"

..:: Team Telly ::..

..:: eXclusive ~ seTul34 ::..




SCREENSHOT





~:Media Info:~



Code:
General
Complete name : Rise of The Zombies [2013] - seTul34.avi
Format : AVI
Format/Info : Audio Video Interleave
File size : 708 MiB
Duration : 1h 26mn
Overall bit rate : 1 143 Kbps

Video
ID : 0
Format : MPEG-4 Visual
Format profile : Simple@L3
Codec ID : XVID
Duration : 1h 26mn
Bit rate : 1 029 Kbps
Width : 640 pixels
Height : 272 pixels
Display aspect ratio : 2.35:1
Frame rate : 29.970 fps
Original frame rate : 29.000 fps
Stream size : 638 MiB (90%)

Audio
ID : 1
Format : MPEG Audio
Codec ID : 55
Codec ID/Hint : MP3
Duration : 1h 26mn
Bit rate mode : Constant
Bit rate : 96.0 Kbps
Channel(s) : 2 channels
Sampling rate : 44.1 KHz
`1Stream size : 59.5 MiB (8%)





Quality Releaser ~ seTul34 wrote:
Problem-* Screenshots Wont Be Clear As It Is When It's Downloaded!

Reason-* Screenshots Have Been Taken From Windows Server!

Solution-* Please Check The Sample Link Provided Below!





~:ScreenShot:~



SCREENSHOT

SCREENSHOT

SCREENSHOT

SCREENSHOT

SCREENSHOT

SCREENSHOT

SCREENSHOT

SCREENSHOT

SCREENSHOT







~: SAMPLE :~





Don't Forget To Say "Thanks"! And "Comment"! If You Like My Post!

If You Don't Reply, This Post Will "Die"!

Check Sample Before "Commenting"!





~: Super Seeding :~





Click Here To Add Review







SCREENSHOT



Torrent location

http://extratorrent.com/torrent/3178988/Rise+of+The+Zombies+%5B2013%5D+-+DVDRip+-+1CD+-++Xvid+-+MP3+-+E-Sub+-+%5BTeam+Telly%5D+-+eXclusive+-+seTul34.html

Scrape History ( seeds + peers )

Trackers

Refresh Leechers : Updated January 12, 2014

1. http://www.tellytorrents.com:2710/00000029fe7382d89d15c09689b6983c/announce

2. udp://www.h33t.com:3310/announce

3. http://121.14.98.151:9090/announce

4. http://newhorizons.twentyforty.me:2710/announce

5. udp://tracker.istole.it:80/announce

6. udp://ipv4.tracker.harry.lu:80/announce

7. http://94.228.192.98/announce

8. udp://9.rarbg.com:2710/announce

9. udp://11.rarbg.me:80/announce

10. udp://10.rarbg.com/announce

11. udp://tracker.publicbt.com:80/announce

12. udp://tracker.openbittorrent.com:80/announce

13. udp://fr33dom.h33t.com:3310/announce

14. udp://tracker.publichd.eu/announce

15. udp://fr33domtracker.h33t.com:3310/announce

Comments

You must log in to add a comment.

Embed Code

Sharing Widget

Related torrents

FILENAME SIZE SEEDS PEERS ADDED UPD
[i] Rise Of The Zombies 2012 FRENCH DVDRip XviD-ARTEFAC 700.5 MB 80 5 7 months 1 month
[i] Rise Of The Zombies 2012 BDRip XviD-WiDE 701.07 MB 69 120 1 year 1 year
[i] Rise Of Zombies (2013) - DVDRip - 1CD - ESubs - Hindi Movie - Bo 701.32 MB 32 87 11 months 11 months
[i] Rise of the Zombies [SYFY Original Movie] [2012/TVRIP/XViD] 676.07 MB 21 6 1 year 1 year
[i] Rise.Of.The.Zombies.2012.SWESUB.DVDRip.XviD.AC3-Graniten 801.3 MB 21 1 10 months 5 months
[i] Rise Of The Zombies 2012 BDRip XviD-WiDE 701.07 MB 17 0 1 month 2 weeks
[i] Black Ops 2 Revolution Map Pack-Die Rise Zombies 1.89 GB 15 1 1 year 3 months
[i] Rise.of.the.Zombies.2012.HDRip.XVID.AC3.HQ.Hive-CM8 1.39 GB 14 4 1 year 1 year
[i] Rise Of The Zombies (2012) BluRay 720p 700MB Ganool 700.07 MB 13 2 1 year 1 year
[i] Rise of the Zombies 2012 DVDRip XviD-PTpOWeR 707.32 MB 6 2 1 year 12 months

Top Movies ( auto generated report )

FILENAME SIZE SEEDS PEERS ADDED UPD
[i] Divergent (2014) 720p BrRip x264 - YIFY
Movies - Sci-Fi , Quality: Audio 9/10 - Video 9/10
934.5 MB 41971 24076 3 days 3 hours
[i] The.Expendables.3.2014.DVDSCR.Xvid-DiNGO
Movies - Action , Quality: Audio 8/10 - Video 8/10
709.3 MB 34729 21625 1 day 3 hours
[i] Divergent (2014) 1080p BrRip x264 - YIFY
Movies - Action , Quality: Audio 9/10 - Video 9/10
2.06 GB 19356 15225 3 days 2 days
[i] The Amazing Spider-Man 2 2014 HDRip XviD-SaM[ETRG]
Movies - Adventure , Quality: Audio 8/10 - Video 7/10
708.3 MB 16069 9937 1 day 11 hours
[i] Dawn.Of.The.Planet.Of.The.Apes.2014.TS.XviD.MP3-RARBG
Movies - Sci-Fi , Quality: Audio 6/10 - Video 5/10
1.69 GB 15882 12972 2 days 1 day
[i] The Expendables 3 2014 Dvdscr Leaked Clean Xvid mp3 rarbg
Movies - Action , Quality: Audio 8/10 - Video 8/10
2.55 GB 12748 6084 1 day 11 hours
[i] The Expendables 3 (2014) DVDSCR XviD-MAX
Movies - Adventure , Quality: Audio 8/10 - Video 8/10
1.62 GB 10793 12910 1 day 22 hours
[i] KICK (2014) [1CD] DVDSCR Rip Xvid Mp3 TeamTNT Exclusive
Movies - Action , Quality: Audio 8/10 - Video 8/10
701.8 MB 10751 23828 1 day 4 hours
[i] Behaving Badly (2014) 1080p BrRip x264 - YIFY
Movies - Comedy , Quality: Audio 9/10 - Video 9/10
1.45 GB 10702 5302 3 days 3 hours
[i] Oculus (2013) 720p BrRip x264 - YIFY
Movies - Horror , Quality: Audio 8/10 - Video 9/10
808.5 MB 9535 3827 3 days 3 hours