Home Upload Categories Collections Blog About

Sunny (1984)(Eng Subs) DVDrip (gnv64)

DOWNLOAD TORRENT

Posted 3 years ago in Movies » Misc , downloaded 30 times , verified torrent

Size: 1.55 GB , Seeds: 0 , Peers: 2

Updated 1 year ago

* Download via Magnet Link , * Anonymous Download with Torrent Privacy

* To download files you need a Bittorrent Client , * How to download torrents from BitTorrentScene?

advertising ( remove )

Scrape History ( seeds + peers )

External Info

Subtitles | Trailer | Wikipedia | Other Info

Internal Files

Sunny (1984)
Sunny (1984).nfo   3.02 KB
Sunny DVDrip (1984) (gnv64).avi   1.54 GB
Sunny.jpeg   991.21 KB
Torrent downloaded from AhaShare.com.txt   59 Byte
Torrent downloaded from Demonoid.com.txt   47 Byte

Hash Code

eff60f294863f50dc84b856131a66e30a141ae8e

Description

Sunny (1984)(Eng Subs) DVDrip (gnv64)





Sunny (1984)

Director: Raj Khosla

Music : R.D.Burman

Cast:

Master Bhagwan     ...     Havaldar

Sunny Deol     ...     Sunny Inderjeet

Dharmendra     ...     Inderjeet

Manik Irani     ...     Amrita's molestor

Waheeda Rehman     ...     Mrs. Gayetri Inderjeet

Amrita Singh     ...     Amrita

Sharmila Tagore     ...     Sitara



Plot : Wealthy businessman Inderjeet marries a lovely woman named Gayatri, but is unhappy with this marriage, as she is unable to bear him any children. He starts frequenting brothels, where he meets with an attractive prostitute by the name of Sitara. Both get intimate, and Sitara becomes pregnant. When Gayetri finds out, she is enraged and will do anything in her power to prevent Sitara continuing to dominate Inderjeet's love. Before she could take any steps, Inderjeet dies in an plane accident, leaving Sitara alone and pregnant. Gayatri conspires against Sitara, invites her over, makes sure she gives birth, then tells her that the child was still-born. A devastated Sitara leaves to continue with her life, leaving Gayatri to bring up her son, Sunny, as her own. Years later, Sunny has grown up, has met with an attractive young woman named Amrita, who he would like to marry. When Gayatri finds out, she is initially happy, but relents when she finds out that Amrita is a dancer and singer on TV, and decides to oppose this marriage at all costs. But when Sunny adamantly refuses to marry anyone else, she permits Amrita's parents to meet with. It is this meeting that will change everything in Gayetri and Sunny's lives forever.



http://www.imdb.com/title/tt0232734/



Format : AVI

File size : 1.54 GiB

Duration : 2h 44mn

Overall bit rate : 1 342 Kbps




Quote:
Video :

Format : MPEG-4 Visual

Codec ID : XVID

Duration : 2h 44mn

Bit rate : 1 199 Kbps

Width : 640 pixels

Height : 360 pixels

Display aspect ratio : 16:9

Frame rate : 29.970 fps

Resolution : 8 bits

Scan type : Progressive

Bits/(Pixel*Frame) : 0.174

Stream size : 1.38 GiB (89%)



Audio :

Format : MPEG Audio

Format version : Version 1

Format profile : Layer 3

Mode : Joint stereo

Codec ID/Hint : MP3

Duration : 2h 44mn

Bit rate mode : Constant

Bit rate : 128 Kbps

Channel(s) : 2 channels

Sampling rate : 44.1 KHz

Stream size : 151 MiB (10%)

Trackers

Updated 1 year ago

1. http://inferno.demonoid.com:3406/announce

2. http://nemesis.1337x.org/announce

3. http://tracker.torrent.to:2710/announce

4. http://9.rarbg.com:2710/announce

5. http://t1.pow7.com/announce

6. http://tracker.publicbt.com/announce

7. http://tracker.ilibr.org/announce

8. http://torrent-download.to:5869/announce

9. http://tpb.tracker.prq.to/announce

Comments

You must log in to add a comment.

Embed Code

Sharing Widget

Related torrents

FILENAME SIZE SEEDS PEERS ADDED UPD
[i] Sunny Leone Loves HD Porn 2 XXX DVDRip 699.42 MB 109 94 1 month 3 days
[i] Lies: Diary Of An Escort (Sunny Leone, Vivid) XXX (DVDRip) 2.04 GB 84 67 4 months 3 months
[i] Sunny Leones Watch Me XXX (DVDRip) 698.82 MB 27 23 4 months 3 months
[i] Sunny Leone - Goddess DvdRip.wmv 1.34 GB 24 4 2 years 1 year
[i] Sunny Loves Matt (Vivid) XXX (DVDRip) 1.39 GB 7 8 6 months 1 month
[i] Sunny Vivid XXX DVDRip 700.07 MB 5 21 4 months 4 months
[i] Sunny Leone Erotica XXX DVDRip XviD STARLETS 1.37 GB 4 3 1 year 1 year
[i] Sunny Lane-Big Wet Asses 13 (2008) DVDRip 587.57 MB 4 2 1 year 2 months
[i] Marc Dorcel - Lanny Et Sunny Chaudes Et Humides 2007 DVDRip 700.3 MB 4 0 12 months 1 day
[i] Sunny Leone - Goddess (Vivid) DvdRip -2012 1.37 GB 4 16 4 months 4 months

Top Movies ( auto generated report )

FILENAME SIZE SEEDS PEERS ADDED UPD
[i] The Railway Man (2013) 720p BrRip x264 - YIFY
Movies - Drama , Quality: Audio 8/10 - Video 9/10
866.5 MB 8197 2146 10 hours 10 hours
[i] Wolf Creek 2 (2013) HDRip Xvid Ac3-XYZ [P2PDL
Movies - Horror , Quality: Audio 7/10 - Video 7/10
1.24 GB 8062 3635 3 days 2 days
[i] Enemy [2013] HDRip XViD juggs[ETRG]
Movies - Thriller , Quality: Audio 9/10 - Video 9/10
704.32 MB 6646 6607 11 hours 11 hours
[i] Planes (2013) 720p BrRip x264 - YIFY
Movies - Animation , Quality: Audio 9/10 - Video 9/10
752.5 MB 6645 5086 1 day 1 day
[i] Khumba (2013) 1080p BrRip x264 - YIFY
Movies - Animation , Quality: Audio 9/10 - Video 9/10
1.24 GB 6491 3926 3 days 1 day
[i] The Patrol 2013 DVDRip XviD-HELLRAZ0R
Movies - Drama , Quality: Audio 8/10 - Video 8/10
707.07 MB 5483 5905 1 day 11 hours
[i] Extraction [2013] HDRip XViD juggs[ETRG]
Movies - Action , Quality: Audio 9/10 - Video 9/10
707.07 MB 5222 6190 1 day 11 hours
[i] Son of Batman 2014 FRENCH BRRiP XviD-CARPEDIEM.
Movies - Animation , Quality: Audio 8/10 - Video 8/10
701.07 MB 4278 859 3 days 1 day
[i] Planes (2013) 1080p BrRip x264 - YIFY
Movies - Animation , Quality: Audio 9/10 - Video 9/10
1.44 GB 3530 1946 2 days 4 hours
[i] Pup (2013) 720p BrRip x264 - YIFY
Movies - Animation , Quality: Audio 9/10 - Video 9/10
694.5 MB 3654 4235 17 hours 11 hours