Bit Torrent Scene a public file sharing platform Home Upload Categories Collections Blog About

Sunny (1984)(Eng Subs) DVDrip (gnv64)

DOWNLOAD TORRENT

Posted on October 23, 2010 in Movies » Misc , downloaded 30 times , verified torrent

Size: 1.55 GB , Seeds: 0 , Peers: 2 ( Updated October 21, 2012 - Refresh )

* Download via Magnet Link

* To download files you need a Bittorrent Client , * How to download torrents from Bit Torrent Scene?

advertising ( remove )

External Info

Subtitles | Trailer | Wikipedia | Other Info

Internal Files

Sunny (1984)
Sunny (1984).nfo   3.02 KB
Sunny DVDrip (1984) (gnv64).avi   1.54 GB
Sunny.jpeg   991.21 KB
Torrent downloaded from AhaShare.com.txt   59 Byte
Torrent downloaded from Demonoid.com.txt   47 Byte

Hash Code

eff60f294863f50dc84b856131a66e30a141ae8e

Description

Sunny (1984)(Eng Subs) DVDrip (gnv64)





Sunny (1984)

Director: Raj Khosla

Music : R.D.Burman

Cast:

Master Bhagwan     ...     Havaldar

Sunny Deol     ...     Sunny Inderjeet

Dharmendra     ...     Inderjeet

Manik Irani     ...     Amrita's molestor

Waheeda Rehman     ...     Mrs. Gayetri Inderjeet

Amrita Singh     ...     Amrita

Sharmila Tagore     ...     Sitara



Plot : Wealthy businessman Inderjeet marries a lovely woman named Gayatri, but is unhappy with this marriage, as she is unable to bear him any children. He starts frequenting brothels, where he meets with an attractive prostitute by the name of Sitara. Both get intimate, and Sitara becomes pregnant. When Gayetri finds out, she is enraged and will do anything in her power to prevent Sitara continuing to dominate Inderjeet's love. Before she could take any steps, Inderjeet dies in an plane accident, leaving Sitara alone and pregnant. Gayatri conspires against Sitara, invites her over, makes sure she gives birth, then tells her that the child was still-born. A devastated Sitara leaves to continue with her life, leaving Gayatri to bring up her son, Sunny, as her own. Years later, Sunny has grown up, has met with an attractive young woman named Amrita, who he would like to marry. When Gayatri finds out, she is initially happy, but relents when she finds out that Amrita is a dancer and singer on TV, and decides to oppose this marriage at all costs. But when Sunny adamantly refuses to marry anyone else, she permits Amrita's parents to meet with. It is this meeting that will change everything in Gayetri and Sunny's lives forever.



http://www.imdb.com/title/tt0232734/



Format : AVI

File size : 1.54 GiB

Duration : 2h 44mn

Overall bit rate : 1 342 Kbps




Quote:
Video :

Format : MPEG-4 Visual

Codec ID : XVID

Duration : 2h 44mn

Bit rate : 1 199 Kbps

Width : 640 pixels

Height : 360 pixels

Display aspect ratio : 16:9

Frame rate : 29.970 fps

Resolution : 8 bits

Scan type : Progressive

Bits/(Pixel*Frame) : 0.174

Stream size : 1.38 GiB (89%)



Audio :

Format : MPEG Audio

Format version : Version 1

Format profile : Layer 3

Mode : Joint stereo

Codec ID/Hint : MP3

Duration : 2h 44mn

Bit rate mode : Constant

Bit rate : 128 Kbps

Channel(s) : 2 channels

Sampling rate : 44.1 KHz

Stream size : 151 MiB (10%)

Scrape History ( seeds + peers )

Trackers

Refresh Leechers : Updated October 21, 2012

1. http://inferno.demonoid.com:3406/announce

2. http://nemesis.1337x.org/announce

3. http://tracker.torrent.to:2710/announce

4. http://9.rarbg.com:2710/announce

5. http://t1.pow7.com/announce

6. http://tracker.publicbt.com/announce

7. http://tracker.ilibr.org/announce

8. http://torrent-download.to:5869/announce

9. http://tpb.tracker.prq.to/announce

Comments

You must log in to add a comment.

Embed Code

Sharing Widget

Related torrents

FILENAME SIZE SEEDS PEERS ADDED UPD
[i] Sunny Leone Loves HD Porn 2 XXX DVDRip 699.42 MB 98 45 6 months 1 month
[i] Sunny Leone Goddess (Vivid) XXX (DVDRip) 1.37 GB 75 42 1 month 1 week
[i] Lies: Diary Of An Escort (Sunny Leone, Vivid) XXX (DVDRip) 2.04 GB 29 17 9 months 3 months
[i] Big Tit Perverts **(NEW 2014 Vivid , Sunny Leone)** [DVDRip]
posted by TheKing in Porn - Movies
1.99 GB 28 29 3 months 4 weeks
[i] Sunny Leone - Goddess DvdRip.wmv 1.34 GB 24 4 2 years 1 year
[i] Sunny Leones Watch Me XXX (DVDRip) 698.82 MB 13 5 9 months 3 months
[i] The Other Side of Sunny 2008 DVDRip 1.37 GB 12 6 3 months 4 weeks
[i] Sunny Loves Matt (Vivid) XXX (DVDRip) 1.39 GB 7 8 11 months 6 months
[i] Marc Dorcel - Lanny Et Sunny Chaudes Et Humides 2007 DVDRip 700.3 MB 4 0 1 year 5 months
[i] Sunny Lane-Big Wet Asses 13 (2008) DVDRip 587.57 MB 3 7 1 year 3 days

Top Movies ( auto generated report )

FILENAME SIZE SEEDS PEERS ADDED UPD
[i] Transformers Age of Extinction (2014) 720p BrRip x264 - YIFY
Movies - Action , Quality: Audio 8/10 - Video 8/10
996.5 MB 46006 37137 3 days 1 day
[i] Transformers Age of Extinction (2014) 1080p BrRip x264 - YIFY
Movies - Sci-Fi , Quality: Audio 9/10 - Video 9/10
2.26 GB 37535 32344 2 days 9 hours
[i] The Homesman (2014) 1080p BrRip x264 - YIFY
Movies - Drama , Quality: Audio 8/10 - Video 9/10
1.85 GB 15415 13845 1 day 23 hours
[i] Reclaim.2014.HDRip.XViD-juggs[ETRG]
Movies - Thriller , Quality: Audio 9/10 - Video 9/10
706.82 MB 8884 5963 2 days 9 hours
[i] Space Station 76 2014 HDRip XViD-juggs[ETRG]
Movies - Comedy , Quality: Audio 8/10 - Video 8/10
708.32 MB 8881 4150 3 days 9 hours
[i] Lost Time 2014 HDRip XviD AC3-EVO
Movies - Horror , Quality: Audio 7/10 - Video 8/10
1.34 GB 7374 7410 2 days 1 day
[i] The Scribbler 2014 HDRip XViD-juggs[ETRG]
Movies - Thriller , Quality: Audio 8/10 - Video 8/10
706.1 MB 6735 5205 1 day 11 hours
[i] Khoobsurat (2014) 1CD DVDSCR Rip Xvid Mp3 TeamTNT Exclusive
Movies - Comedy , Quality: Audio 7/10 - Video 7/10
704.65 MB 5969 7885 2 days 9 hours
[i] The November Man 2014 HC WEBRip XviD MP3-RARBG
Movies - Action , Quality: Audio 8/10 - Video 8/10
1.33 GB 4912 7762 9 hours 5 hours
[i] Vegam (2014) Malayalam DVDRip x264 AAC 5.1-MBRHDRG
Movies - Thriller , Quality: Audio 9/10 - Video 9/10
569.57 MB 3420 2113 3 days 2 days