Home Upload Categories Collections Blog About

The ABCs of Death (2012)[BDRip.x264.DTS][Napisy Pl][Eng]

DOWNLOAD TORRENT

Posted by alE13 •562 1 year ago in Movies » Horror , downloaded 23 times , verified torrent

Size: 4.26 GB , Seeds: 24 , Peers: 55

Updated 1 year ago

* Download via Magnet Link , * Anonymous Download with Torrent Privacy

* To download files you need a Bittorrent Client , * How to download torrents from BitTorrentScene?

advertising ( remove )

Scrape History ( seeds + peers )

External Info

Subtitles | www.youtube.com added by imarion | Wikipedia added by imarion | www.imdb.com added by imarion

Internal Files

The ABCs of Death (2012)-alE13
Alfabet Śmierci_pl.sub   3.06 MB
Alfabet Śmierci_pl.srt   43.21 KB
Alfabet Śmierci_pl.idx   30.79 KB
The ABCs of Death (2012)-alE13.mkv   4.22 GB
Sample.mkv   30.48 MB
alE1300001.png   2.43 MB
alE1300003.png   2.26 MB
alE1300002.png   1.82 MB
alE1300000.png   1.53 MB
1.jpg   162.62 KB
2.jpg   98.08 KB
Torrent downloaded from alE13 torrents at BTScene.org.txt   120 Byte

Hash Code

bdeaf96c3767637313691f5662ff7556bf6252cf

Description

SCREENSHOT

UWAGA!!! Film dla widzów dorosłych !!!!
WARNING! Movie for viewers over 18 years !!!!


The file containing - sample!!!
Plik zawiera - sample !!!


gatunek: Horror, Nowele filmowe
produkcja: Nowa Zelandia USA
premiera:15 września 2012 (świat)
reżyseria: Angela Bettis,Hélène Cattet, Ernesto Díaz Espinoza, Jason Eisener & more...
scenariusz: Simon Barrett, Simon Rumley, Srdjan Spasojević, Dimitrije Vojnov & more...
czas: 02:09:19

Opis:

A 26-chapter anthology that showcases death in all its vicious wonder and brutal beauty.

Składająca się z 26 nowel, antologia filmowa. Każdej historii przypisana jest inna litera alfabetu,
oraz odpowiedzialny jest za nią inny reżyser. Tematem przewodnim jest śmierć, a twórcy zostali tak
dobrani by pokazać ją z wielu punktów widzenia. Ich nazwiska gwarantują widzom, że całość będzie
pełna przemocy oraz czarnego humoru.

SCREENSHOT
SCREENSHOT
SCREENSHOT

obsada:

Kyra Zagorsky..... Lainey
Fraser Corbett... Nezbit
Darenzia...........Roxanne

dane techniczne:

The ABCs of Death (2012)-alE13.mkv
Format : Matroska
Format version : Version 2
File size : 4.22 GiB
Duration : 2h 9mn
Overall bit rate : 4 672 Kbps
Movie name : The ABCs of Death (2012)-alE13_AT-TEAM
Encoded date : UTC 2013-04-01 07:38:57
Writing application : mkvmerge v5.8.0 ('No Sleep / Pillow') built on Sep 2 2012 15:37:04
Writing library : libebml v1.2.3 + libmatroska v1.3.0

Video
ID : 1
Format : AVC
Format/Info : Advanced Video Codec
Format profile : Main@L4.0
Format settings, CABAC : Yes
Format settings, ReFrames : 2 frames
Muxing mode : Header stripping
Codec ID : V_MPEG4/ISO/AVC
Duration : 2h 9mn
Bit rate : 3 200 Kbps
Width : 1 920 pixels
Height : 1 080 pixels
Display aspect ratio : 16:9
Frame rate mode : Constant
Frame rate : 24.000 fps
Color space : YUV
Chroma subsampling : 4:2:0
Bit depth : 8 bits
Scan type : Progressive
Bits/(Pixel*Frame) : 0.064
Stream size : 2.77 GiB (66%)
Title : The ABCs of Death (2012)Rip.-alE13
Writing library : x264 core 112 r1834 a51816a

Audio
ID : 2
Format : DTS
Format/Info : Digital Theater Systems
Mode : 16
Format settings, Endianness : Big
Muxing mode : Header stripping
Codec ID : A_DTS
Duration : 2h 9mn
Bit rate mode : Constant
Bit rate : 1 509 Kbps
Channel(s) : 6 channels
Channel positions : Front: L C R, Side: L R, LFE
Sampling rate : 48.0 KHz
Bit depth : 16 bits
Compression mode : Lossy
Stream size : 1.36 GiB (32%)
Title : The ABCs of Death (2012)Rip.-alE13
Language : English

Text
ID : 3
Format : VobSub
Muxing mode : zlib
Codec ID : S_VOBSUB
Codec ID/Info : The same subtitle format used on DVDs
Title : The ABCs of Death (2012)sub.-alE13
Language : Polish

Trackers

Updated 1 year ago

1. http://fr33dom.h33t.com:3310/announce

2. http://exodus.desync.com:6969/announce

3. udp://tracker.openbittorrent.com:80/announce

4. udp://tracker.publicbt.com:80/announce

Comments

You must log in to add a comment.

Embed Code

Sharing Widget

Related torrents

FILENAME SIZE SEEDS PEERS ADDED UPD
[i] The ABCs of Death (2012) BluRay 720p 1GB x264 Ganool 999.57 MB 195 71 1 year 1 year
[i] The.ABCs.Of.Death.2012.LIMITED.720p.BluRay.DTS.x264-PublicHD 5.46 GB 113 125 1 year 1 year
[i] The.ABCs.Of.Death.2012.LIMITED.1080p.BluRay.x264-PublicHD 9.86 GB 71 124 1 year 1 year
[i] The ABCs of Death 2012 HDRiP XviD-Acesn8s
posted by Anders in Movies - Horror
704.5 MB 48 11 1 year 7 months
[i] The ABCs of Death (2012)[BDRip.x264.DTS][Napisy Pl][Eng]
posted by alE13 in Movies - Horror
4.26 GB 24 55 1 year 1 year
[i] The ABCs of Death 2012 BRRip Xvid AC3 - KINGDOM 1.54 GB 13 6 11 months 6 months
[i] The.ABCs.of.Death.2012.1080p.BluRay.X264-Japhson [PublicHD] 8.74 GB 11 10 11 months 10 months
[i] The ABCs of Death 2012 HDTV XviD-AFG 1.02 GB 9 1 1 year 1 year
[i] The ABCs of Death 2012 720p WEB DL AAC2 0 H264 CtrlHD 3.82 GB 9 0 1 year 1 year
[i] The.ABCs.of.Death.2012.720p.WEB-DL.AAC2.0.H.264-CtrlHD 3.82 GB 7 5 1 year 1 year

Top Movies ( auto generated report )

FILENAME SIZE SEEDS PEERS ADDED UPD
[i] Need.For.Speed.2014.HD-TS.XVID.AC3.HQ.Hive-CM8 1.82 GB 10867 10056 2 days 14 hours
[i] Wolf Creek 2 (2013) HDRip Xvid Ac3-XYZ [P2PDL
Movies - Horror , Quality: Audio 7/10 - Video 7/10
1.24 GB 7382 7240 1 day 20 hours
[i] Son of Batman 2014 FRENCH BRRiP XviD-CARPEDIEM. 701.07 MB 4211 2691 19 hours 19 hours
[i] 2 States (2014) - DVDScr - Xvid - 1CD - Team M2TV
Movies - Romance , Quality: Audio 7/10 - Video 7/10
701.07 MB 4112 4716 1 day 6 hours
[i] The Art of the Steal (2013) 1080p BrRip x264 - YIFY
Movies - Comedy , Quality: Audio 9/10 - Video 9/10
1.24 GB 3765 1584 3 days 1 day
[i] The Railway Man (2013) 1080p BrRip x264 - YIFY 1.84 GB 3157 2370 1 day 19 hours
[i] Khumba (2013) 1080p BrRip x264 - YIFY
Movies - Animation , Quality: Audio 9/10 - Video 9/10
1.24 GB 2379 4491 22 hours 20 hours
[i] Devil's Due (2014) 1080p BrRip x264 - YIFY
Movies - Horror , Quality: Audio 9/10 - Video 9/10
1.23 GB 2318 880 4 days 2 days
[i] The Railway Man[2013] BRRip XViD juggs[ETRG] 705.82 MB 1786 1427 2 days 2 hours
[i] 2 States (2014) 720p DVDScr Rip x264 AAC raJonbOy 1.23 GB 1909 2514 2 days 9 hours