Bit Torrent Scene a public file sharing platform Home Upload Categories Collections Blog About

The Exorcist (1973) Extended Directors Cut 3D.mkv

DOWNLOAD TORRENT

Posted on December 14, 2012 in Movies » Horror , downloaded 13 times , verified torrent

Size: 11.53 GB , Seeds: 3 , Peers: 4 ( Updated June 6, 2014 - Refresh )

* Download via Magnet Link , * To download files you need a Bittorrent Client , * How to download torrents from Bit Torrent Scene?

advertising ( remove )

Internal Files

The Exorcist (1973) Extended Directors Cut 3D.mkv
The Exorcist (1973) Extended Directors Cut 3D.mkv   11.52 GB

Hash Code

6c4d0703875acb9bcc2e5c4e9fe9ea7b0ee359b9

Description


The Exorcist (1973) Extended Directors Cut Blu ray rip 720p



DVDFAB 3D converted 3DTV SBS active shutter





http://www.imdb.com/title/tt0070047/









Video

ID : 1

Format : AVC

Format/Info : Advanced Video Codec

Format profile : High@L4.1

Format settings, CABAC : Yes

Format settings, ReFrames : 2 frames

Format settings, GOP : M=3, N=15

Codec ID : V_MPEG4/ISO/AVC

Duration : 2h 12mn

Bit rate mode : Variable

Bit rate : 11.7 Mbps

Maximum bit rate : 18.0 Mbps

Width : 1280 pixels

Height : 720 pixels

Display aspect ratio : 16:9

Frame rate : 23.976 fps

Color space : YUV

Chroma subsampling : 4:2:0

Bit depth : 8 bits

Scan type : Progressive

Bits/(Pixel*Frame) : 0.530

Stream size : 10.8 GiB (94%)

Default : Yes

Forced : No



Audio

ID : 2

Format : AC-3

Format/Info : Audio Coding 3

Mode extension : CM (complete main)

Codec ID : A_AC3

Duration : 2h 12mn

Bit rate mode : Constant

Bit rate : 512 Kbps

Channel(s) : 6 channels

Channel positions : Front: L C R, Side: L R, LFE

Sampling rate : 48.0 KHz

Bit depth : 16 bits

Compression mode : Lossy

Stream size : 485 MiB (4%)

Default : Yes

Forced : No




Torrent location

http://kat.ph/the-exorcist-1973-extended-directors-cut-3d-mkv-t6901447.html

Scrape History ( seeds + peers )

Trackers

Refresh Leechers : Updated June 6, 2014

1. udp://tracker.publicbt.com:80/announce

2. udp://tracker.openbittorrent.com:80/announce

3. udp://fr33domtracker.h33t.com:3310/announce

4. udp://tracker.istole.it:80/announce

Comments

You must log in to add a comment.

Embed Code

Sharing Widget

Related torrents

FILENAME SIZE SEEDS PEERS ADDED UPD
[i] The Exorcist (1973) Extended Directors Cut 3D.mkv 11.53 GB 3 4 1 year 5 months
[i] The Exorcist (1973) Extended Directors Cut.mkv 11.49 GB 0 0 2 years 2 weeks

Top Movies ( auto generated report )

FILENAME SIZE SEEDS PEERS ADDED UPD
[i] Teenage Mutant Ninja Turtles (2014) 720p BrRip x264 - YIFY 806.5 MB 19814 17417 2 days 1 day
[i] Predestination (2014) 720p BrRip x264 - YIFY
Movies - Sci-Fi , Quality: Audio 9/10 - Video 9/10
758.5 MB 19781 14553 3 days 2 days
[i] Teenage Mutant Ninja Turtles (2014) 1080p BrRip x264 - YIFY 1.64 GB 14071 14221 2 days 1 day
[i] The Salvation (2014) 720p BrRip x264 - YIFY 750.5 MB 9510 5926 1 day 19 hours
[i] Housebound (2014) 1080p BrRip x264 - YIFY 1.65 GB 8103 4288 3 days 2 hours
[i] Predestination (2014) 1080p BrRip x264 - YIFY 1.45 GB 7128 7281 1 day 1 day
[i] The Boxtrolls 2014 HDRip XViD-juggs[ETRG] 706.57 MB 6634 5176 3 days 2 days
[i] The.Maze.Runner.2014.DVDRip.XviD-EVO 767.82 MB 5101 6742 2 days 1 day
[i] Magic In The Moonlight 2014 DVDRip XviD AC3-UT
Movies - Comedy , Quality: Audio 7/10 - Video 7/10
1.45 GB 3432 4207 4 days 3 days
[i] The Maze Runner 2014 DVDRip x264 AC3 5.1-JYK 1.82 GB 6748 2924 1 day 6 hours