Bit Torrent Scene a public file sharing platform Home Upload Categories Collections Blog About

The Turning Point [1952]

DOWNLOAD TORRENT

Posted on March 9, 2010 in Movies » Misc , downloaded 81 times

Size: 1.03 GB , Seeds: 1 , Peers: 1 ( Updated September 25, 2014 - Refresh )

* Download via Magnet Link

* To download files you need a Bittorrent Client , * How to download torrents from Bit Torrent Scene?

advertising ( remove )

External Info

Subtitles | Trailer | Wikipedia | Other Info

Internal Files

THE TURNING POINT (1952)
The Turning Point.divx   1.03 GB
Torrent downloaded from Demonoid.com.txt   47 Byte

Hash Code

27a740fa65b364a635e136f1a1acae5ca7d0cc4a

Description


Movies : Crime : Other quality : English
.
http://www.imdb.com/title/tt0045267/

Special prosecutor John Conroy hopes to combat organized crime in his city, and appoints his cop father Matt as chief investigator. John doesn't understand why Matt is reluctant, but cynical reporter Jerry McKibbon thinks he knows: he's seen Matt with mob lieutenant Harrigan. Jerry's friendship for John is tested by the question of what to do about Matt, and by his attraction to John's girl Amanda. Meanwhile, the threatened racketeers adopt increasingly violent means of defense.

General
Complete name : Z:SeedboxTHE TURNING POINT (1952)The Turning Point.divx
Format : DivX
Format/Info : Hack of AVI
File size : 1.03 GiB
Duration : 1h 25mn
Overall bit rate : 1 727 Kbps

Video
Format : MPEG-4 Visual
Format settings, BVOP : Yes
Format settings, QPel : No
Format settings, GMC : No warppoints
Format settings, Matrix : Default
Muxing mode : Packed bitstream
Codec ID : DX50
Codec ID/Hint : DivX 5
Duration : 1h 25mn
Bit rate : 1 590 Kbps

Width : 640 pixels
Height : 480 pixels

Display aspect ratio : 4/3
Frame rate : 23.979 fps
Resolution : 24 bits
Colorimetry : 4:2:0
Scan type : Progressive

Bits/(Pixel*Frame) : 0.216
Stream size : 967 MiB (92%)
Title : Main
Writing library : DivX 2816

Audio
Format : MPEG Audio
Format version : Version 1
Format profile : Layer 3
Codec ID : 55
Codec ID/Hint : MP3
Duration : 1h 25mn
Bit rate mode : Constant
Bit rate : 128 Kbps
Channel(s) : 2 channels
Sampling rate : 48.0 KHz
Resolution : 16 bits
Stream size : 77.9 MiB (7%)
Alignment : Split accross interleaves
Interleave, duration : 42 ms (1.00 video frame)
Interleave, preload duration : 500 ms
Title : Audio
Writing library : LAME3.97

Scrape History ( seeds + peers )

Trackers

Refresh Leechers : Updated September 25, 2014

1. http://tracker.thepiratebay.org/announce

2. udp://tracker.thepiratebay.org:80/announce

3. http://inferno.demonoid.com:3393/announce

4. udp://tracker.openbittorrent.com:80/announce

5. http://tracker.openbittorrent.com/announce

Comments

You must log in to add a comment.

Embed Code

Sharing Widget

Related torrents

FILENAME SIZE SEEDS PEERS ADDED UPD
[i] The Vampire Diaries S01E10 The Turning Point HDTV XviD-FQM [eztv] 350.65 MB 63 5 4 years 1 month
[i] Mayday.Air.Crash.Investigation.S11E06.Turning.Point.WEBRIP.Xvid.avi 198.82 MB 19 4 2 years 2 years
[i] [R.G. Mechanics] Turning Point - Fall of Liberty 2.7 GB 14 3 1 year 1 month
[i] TNA.Turning.Point.2011.HDTV.x264-NWCHD 1.6 GB 7 12 2 years 1 year
[i] Wittgenstein, Turning Point in the Philosophy of Mathematics [PDF] [StormRG] 6.96 MB 7 0 4 months 1 month
[i] The Turning Point 1977 720p BRRip x264-PLAYNOW 889.32 MB 6 0 1 year 1 month
[i] Turning Point 2 2011 720p BluRay x264 2Audio-HDChina 4.38 GB 5 4 2 years 2 years
[i] James Walsh - Turning Point (2014) 108.29 MB 5 0 2 months 3 weeks
[i] TNA.Turning.Point.2012.HDTV.x264-NWCHD 1.94 GB 4 0 1 year 5 months
[i] TNA.Turning.Point.2011.HDTV.x264-RUDOS 2.04 GB 3 13 2 years 1 year

Top Movies ( auto generated report )

FILENAME SIZE SEEDS PEERS ADDED UPD
[i] Into the Storm (2014) 1080p BrRip x264 - YIFY
Movies - Thriller , Quality: Audio 9/10 - Video 9/10
1.24 GB 21006 12449 2 days 16 hours
[i] Boyhood (2014) 720p BrRip x264 - YIFY
Movies - Drama , Quality: Audio 9/10 - Video 9/10
1000.6 MB 10758 8833 1 day 18 hours
[i] Dawn Of The Planet Of The Apes 2014 FRENCH WEBRiP XviD-SHiFT 1.27 GB 10398 3263 10 hours 8 hours
[i] Into the Storm (2014) 720p BrRip x264 - YIFY
Movies - Thriller , Quality: Audio 9/10 - Video 9/10
700.5 MB 9572 6936 3 days 2 days
[i] Automata (2014) 720p BrRip x264 - YIFY
Movies - Sci-Fi , Quality: Audio 9/10 - Video 9/10
816.5 MB 8689 4903 2 days 1 day
[i] Teenage Mutant Ninja Turtles 2014 1080p WEB-DL x264 AC3-JYK
Movies - Adventure , Quality: Audio 9/10 - Video 9/10
3.36 GB 8331 7135 3 days 16 hours
[i] Teenage Mutant Ninja Turtles 2014 HDRip XViD-juggs[ETRG]
Movies - Adventure , Quality: Audio 8/10 - Video 8/10
706.32 MB 6113 3317 2 days 1 day
[i] Zombeavers (2014) 1080p BrRip x264 - YIFY
Movies - Comedy , Quality: Audio 9/10 - Video 9/10
1.23 GB 6691 6232 1 day 8 hours
[i] Dawn Of The Planet of The Apes 2014 720p WEB-DL x264 AC3-JYK
Movies - Sci-Fi , Quality: Audio 8/10 - Video 9/10
2.86 GB 5615 3487 16 hours 14 hours
[i] These Final Hours 2013 WBBRip
Movies - Thriller , Quality: Audio 8/10 - Video 8/10
556.17 MB 5452 1590 1 day 19 hours