Bit Torrent Scene a public file sharing platform Home Upload Categories Collections Blog About

The Turning Point [1952]

DOWNLOAD TORRENT

Posted on March 9, 2010 in Movies » Misc , downloaded 80 times

Size: 1.03 GB , Seeds: 2 , Peers: 1 ( Updated March 7, 2012 - Refresh )

* Download via Magnet Link

* To download files you need a Bittorrent Client , * How to download torrents from Bit Torrent Scene?

advertising ( remove )

External Info

Subtitles | Trailer | Wikipedia | Other Info

Internal Files

THE TURNING POINT (1952)
The Turning Point.divx   1.03 GB
Torrent downloaded from Demonoid.com.txt   47 Byte

Hash Code

27a740fa65b364a635e136f1a1acae5ca7d0cc4a

Description


Movies : Crime : Other quality : English
.
http://www.imdb.com/title/tt0045267/

Special prosecutor John Conroy hopes to combat organized crime in his city, and appoints his cop father Matt as chief investigator. John doesn't understand why Matt is reluctant, but cynical reporter Jerry McKibbon thinks he knows: he's seen Matt with mob lieutenant Harrigan. Jerry's friendship for John is tested by the question of what to do about Matt, and by his attraction to John's girl Amanda. Meanwhile, the threatened racketeers adopt increasingly violent means of defense.

General
Complete name : Z:SeedboxTHE TURNING POINT (1952)The Turning Point.divx
Format : DivX
Format/Info : Hack of AVI
File size : 1.03 GiB
Duration : 1h 25mn
Overall bit rate : 1 727 Kbps

Video
Format : MPEG-4 Visual
Format settings, BVOP : Yes
Format settings, QPel : No
Format settings, GMC : No warppoints
Format settings, Matrix : Default
Muxing mode : Packed bitstream
Codec ID : DX50
Codec ID/Hint : DivX 5
Duration : 1h 25mn
Bit rate : 1 590 Kbps

Width : 640 pixels
Height : 480 pixels

Display aspect ratio : 4/3
Frame rate : 23.979 fps
Resolution : 24 bits
Colorimetry : 4:2:0
Scan type : Progressive

Bits/(Pixel*Frame) : 0.216
Stream size : 967 MiB (92%)
Title : Main
Writing library : DivX 2816

Audio
Format : MPEG Audio
Format version : Version 1
Format profile : Layer 3
Codec ID : 55
Codec ID/Hint : MP3
Duration : 1h 25mn
Bit rate mode : Constant
Bit rate : 128 Kbps
Channel(s) : 2 channels
Sampling rate : 48.0 KHz
Resolution : 16 bits
Stream size : 77.9 MiB (7%)
Alignment : Split accross interleaves
Interleave, duration : 42 ms (1.00 video frame)
Interleave, preload duration : 500 ms
Title : Audio
Writing library : LAME3.97

Trackers

Refresh Leechers : Updated March 7, 2012

1. http://tracker.thepiratebay.org/announce

2. udp://tracker.thepiratebay.org:80/announce

3. http://inferno.demonoid.com:3393/announce

4. udp://tracker.openbittorrent.com:80/announce

5. http://tracker.openbittorrent.com/announce

Comments

You must log in to add a comment.

Embed Code

Sharing Widget

Related torrents

FILENAME SIZE SEEDS PEERS ADDED UPD
[i] The Vampire Diaries S01E10 The Turning Point HDTV XviD-FQM [eztv] 350.65 MB 88 21 4 years 1 year
[i] Mayday.Air.Crash.Investigation.S11E06.Turning.Point.WEBRIP.Xvid.avi 198.82 MB 19 4 2 years 2 years
[i] Wittgenstein, Turning Point in the Philosophy of Mathematics [PDF] [StormRG] 6.96 MB 18 1 3 months 3 weeks
[i] [R.G. Mechanics] Turning Point - Fall of Liberty 2.7 GB 14 3 1 year 16 hours
[i] The Turning Point 1977 720p BRRip x264-PLAYNOW 889.32 MB 8 7 1 year 1 year
[i] TNA.Turning.Point.2011.HDTV.x264-NWCHD 1.6 GB 7 12 2 years 1 year
[i] James Walsh - Turning Point (2014) 108.29 MB 6 0 1 day 5 hours
[i] Turning Point 2 2011 720p BluRay x264 2Audio-HDChina 4.38 GB 5 4 2 years 2 years
[i] TNA.Turning.Point.2012.HDTV.x264-NWCHD 1.94 GB 4 0 1 year 4 months
[i] TNA.Turning.Point.2011.HDTV.x264-RUDOS 2.04 GB 3 13 2 years 1 year

Top Movies ( auto generated report )

FILENAME SIZE SEEDS PEERS ADDED UPD
[i] How to Train Your Dragon 2 2014 1080p WEB-DL AAC2 0 H264-RARBG
Movies - Animation , Quality: Audio 9/10 - Video 9/10
3.17 GB 28194 20777 2 days 14 hours
[i] Edge of Tomorrow 2014 1080p WEBRip HC XviD MP3-RARBG
Movies - Sci-Fi , Quality: Audio 7/10 - Video 8/10
2.54 GB 19691 14891 1 day 14 hours
[i] How.to.Train.Your.Dragon.2.2014.HDRip.XViD-juggs[ETRG]
Movies - Animation , Quality: Audio 9/10 - Video 9/10
708.32 MB 9432 8075 1 day 1 day
[i] Sex.Tape.2014.FRENCH.TS.LD.x264-SERUM 595.57 MB 4727 818 2 days 1 day
[i] Think.Like.A.Man.Too.2014.FRENCH.BDRip.XviD-oo0oo 700.82 MB 4612 731 1 day 17 hours
[i] How to Train Your Dragon 2 (2014) WEBDL XviD-MAXSPEED
Movies - Animation , Quality: Audio 9/10 - Video 9/10
1.47 GB 4512 3825 2 days 1 day
[i] Heavenly.Sword.2014.HDRip.XviD.AC3-EVO 1.34 GB 4353 9253 14 hours 6 hours
[i] Edge Of Tomorrow 2014 HC 720p WEBRip x264 AC3-JYK
Movies - Sci-Fi , Quality: Audio 8/10 - Video 9/10
1.86 GB 3625 4005 1 day 10 hours
[i] Sector 4 Extraction (2014) 720p BrRip x264 - YIFY
Movies - Action , Quality: Audio 9/10 - Video 9/10
696.5 MB 2921 2156 1 day 11 hours
[i] The.Rover.2014.FRENCH.DVDRip.MD.XviD-SHiFT 890.07 MB 2144 282 2 days 3 hours