Home Upload Categories Collections Blog About

The Turning Point [1952]

DOWNLOAD TORRENT

Posted 4 years ago in Movies » Misc , downloaded 77 times

Size: 1.03 GB , Seeds: 2 , Peers: 1

Updated 2 years ago

* Download via Magnet Link , * Anonymous Download with Torrent Privacy

* To download files you need a Bittorrent Client , * How to download torrents from BitTorrentScene?

advertising ( remove )

External Info

Subtitles | Trailer | Wikipedia | Other Info

Internal Files

THE TURNING POINT (1952)
The Turning Point.divx   1.03 GB
Torrent downloaded from Demonoid.com.txt   47 Byte

Hash Code

27a740fa65b364a635e136f1a1acae5ca7d0cc4a

Description


Movies : Crime : Other quality : English
.
http://www.imdb.com/title/tt0045267/

Special prosecutor John Conroy hopes to combat organized crime in his city, and appoints his cop father Matt as chief investigator. John doesn't understand why Matt is reluctant, but cynical reporter Jerry McKibbon thinks he knows: he's seen Matt with mob lieutenant Harrigan. Jerry's friendship for John is tested by the question of what to do about Matt, and by his attraction to John's girl Amanda. Meanwhile, the threatened racketeers adopt increasingly violent means of defense.

General
Complete name : Z:SeedboxTHE TURNING POINT (1952)The Turning Point.divx
Format : DivX
Format/Info : Hack of AVI
File size : 1.03 GiB
Duration : 1h 25mn
Overall bit rate : 1 727 Kbps

Video
Format : MPEG-4 Visual
Format settings, BVOP : Yes
Format settings, QPel : No
Format settings, GMC : No warppoints
Format settings, Matrix : Default
Muxing mode : Packed bitstream
Codec ID : DX50
Codec ID/Hint : DivX 5
Duration : 1h 25mn
Bit rate : 1 590 Kbps

Width : 640 pixels
Height : 480 pixels

Display aspect ratio : 4/3
Frame rate : 23.979 fps
Resolution : 24 bits
Colorimetry : 4:2:0
Scan type : Progressive

Bits/(Pixel*Frame) : 0.216
Stream size : 967 MiB (92%)
Title : Main
Writing library : DivX 2816

Audio
Format : MPEG Audio
Format version : Version 1
Format profile : Layer 3
Codec ID : 55
Codec ID/Hint : MP3
Duration : 1h 25mn
Bit rate mode : Constant
Bit rate : 128 Kbps
Channel(s) : 2 channels
Sampling rate : 48.0 KHz
Resolution : 16 bits
Stream size : 77.9 MiB (7%)
Alignment : Split accross interleaves
Interleave, duration : 42 ms (1.00 video frame)
Interleave, preload duration : 500 ms
Title : Audio
Writing library : LAME3.97

Trackers

Updated 2 years ago

1. http://tracker.thepiratebay.org/announce

2. udp://tracker.thepiratebay.org:80/announce

3. http://inferno.demonoid.com:3393/announce

4. udp://tracker.openbittorrent.com:80/announce

5. http://tracker.openbittorrent.com/announce

Comments

You must log in to add a comment.

Embed Code

Sharing Widget

Related torrents

FILENAME SIZE SEEDS PEERS ADDED UPD
[i] The Vampire Diaries S01E10 The Turning Point HDTV XviD-FQM [eztv] 350.65 MB 88 21 4 years 1 year
[i] [R.G. Mechanics] Turning Point - Fall of Liberty 2.7 GB 21 2 7 months 2 months
[i] Mayday.Air.Crash.Investigation.S11E06.Turning.Point.WEBRIP.Xvid.avi 198.82 MB 19 4 2 years 1 year
[i] TNA.Turning.Point.2012.HDTV.x264-NWCHD 1.94 GB 8 1 1 year 1 year
[i] The Turning Point 1977 720p BRRip x264-PLAYNOW 889.32 MB 8 7 1 year 1 year
[i] TNA.Turning.Point.2011.HDTV.x264-NWCHD 1.6 GB 7 12 2 years 1 year
[i] Turning Point 2 2011 720p BluRay x264 2Audio-HDChina 4.38 GB 5 4 2 years 1 year
[i] TNA.Turning.Point.2011.HDTV.x264-RUDOS 2.04 GB 3 13 2 years 1 year
[i] TNA.Turning.Point.2012.HDTV.x264-NWCHD.mp4 1.95 GB 2 0 1 year 1 year
[i] The.Turning.Point.1977.1080p.BluRay.x264-NORDiCHD [PublicHD] 7.95 GB 1 0 1 year 7 months

Top Movies ( auto generated report )

FILENAME SIZE SEEDS PEERS ADDED UPD
[i] Labor Day (2013) 720p BrRip x264 - YIFY
Movies - Drama , Quality: Audio 9/10 - Video 9/10
814.5 MB 8844 3579 2 days 12 hours
[i] The Art of the Steal (2013) 720p BrRip x264 - YIFY
Movies - Comedy , Quality: Audio 9/10 - Video 9/10
700.5 MB 7903 9404 1 day 1 day
[i] Devil's Due[2014] HDRip XViD juggs[ETRG]
Movies - Horror , Quality: Audio 9/10 - Video 8/10
708.32 MB 7232 4271 1 day 3 hours
[i] Ride Along (2014) 1080p BrRip x264 - YIFY
Movies - Action , Quality: Audio 9/10 - Video 9/10
1.45 GB 4631 755 2 days 21 hours
[i] War of the Worlds: Goliath (2012) 720p BrRip x264 - YIFY
Movies - Animation , Quality: Audio 9/10 - Video 9/10
700.5 MB 4190 1969 2 days 13 hours
[i] G.B.F. (2013) 720p BrRip x264 - YIFY
Movies - Comedy , Quality: Audio 9/10 - Video 9/10
756.5 MB 2985 4369 1 day 1 day
[i] The Appearing [2014] HDRip XViD juggs[ETRG]
Movies - Horror , Quality: Audio 9/10 - Video 9/10
709.32 MB 2752 4984 1 day 1 day
[i] Labor Day (2013) 1080p BrRip x264 - YIFY 1.64 GB 2362 907 2 days 6 hours
[i] Twice Born (2012) 720p BrRip x264 - YIFY
Movies - Drama , Quality: Audio 9/10 - Video 9/10
924.5 MB 1551 2775 1 day 1 day
[i] The Protector 2 [2013] BRRip XviD[Thai]-SaM[ETRG] 710.3 MB 1118 3338 1 day 1 day