Bit Torrent Scene a public file sharing platform Home Upload Categories Collections Blog About

Transformers Prime S01E03 Darkness Rising Part.III HDTV x264 720p-CaRNaGE

DOWNLOAD TORRENT

Posted on February 28, 2011 in Anime » Misc , downloaded 89 times , verified torrent

Size: 350.15 MB , Seeds: 4 , Peers: 0 ( Updated October 27, 2014 - Refresh )

* Download via Magnet Link

* To download files you need a Bittorrent Client , * How to download torrents from Bit Torrent Scene?

advertising ( remove )

External Info

Subtitles | Trailer | Wikipedia | Other Info

Internal Files

Transformers.Prime.S01E03.Darkness.Rising.Part.III.HDTV.x264.720p-CaRNaGE
Torrent dowloaded from Ahashare.com.txt   35 Byte
Torrent downloaded from 1337x.org.txt   36 Byte
Torrent downloaded from Demonoid.me.txt   38 Byte
Torrent downloaded from Extratorrent.com.txt   43 Byte
Torrent downloaded from h33t.com.txt   36 Byte
Torrent Downloaded from TorrentState.com.txt   46 Byte
Transformers.Prime.S01E03.Darkness.Rising.Part.III.HDTV.x264.720p-CaRNaGE.mkv   349.54 MB
Transformers.Prime.S01E03.Darkness.Rising.Part.III.HDTV.x264.720p-CaRNaGE.nfo   4.01 KB

Hash Code

5302d40754062ced8a8aeb13165b7b783365c8c7

Description

Transformers Prime S01E03 Darkness Rising Part.III HDTV x264 720p-CaRNaGE





   



Transformers.Prime.S01E03.Darkness.Rising.Part.III.HDTV.x264.720p-CaRNaGE



Show Info



TRANSFORMERS PRIME chronicles the triumphant return of the AUTOBOTS via the most cutting-edge

computer-generated animation ever seen on television...



General



Genre: Sci-fi  / Action

Language: English

Year: 2010

Season: One

Episode: Three

Episode Title: "Darness Rising Part III"

December 1, 2010



http://www.imdb.com/title/tt1659175/



http://en.wikipedia.org/wiki/Transformers:_Prime



Episode Info:



While the other Autobots are with the humans, Ratchet remains at the base to examine the goo that

was on Arcee. He's attacked by the medical equipment that was crushed by Bulkhead, and Optimus

arrvies, shooting it and stepping on it. As the others arrive, Ratchet and Optimus depart for a

Cybertronian graveyard on Earth, leaving Arcee in charge; she and Bumblebee go out on patrol and

leave Bulkhead in charge. Fowler discovers Jack, Raf and Miko, and after Bulkhead prevents him

from taking them, he leaves the base only to be attacked by what appears to be Ratbat. Bulkhead

responds to his SOS and heads out to rescue him, but Miko follows. Optimus and Ratchet meanwhile

encounter Megatron at the graveyard, and with a piece of Dark Energon, he brings all the dead

Cybertronians to to life.



Encoding



Video



ID                               : 1

Format                           : AVC

Format/Info                      : Advanced Video Codec

Format profile                   : High@L4.1

Format settings, CABAC           : Yes

Format settings, ReFrames        : 3 frames

Format settings, GOP             : M=4, N=34

Codec ID                         : V_MPEG4/ISO/AVC

Duration                         : 22mn 0s

Bit rate mode                    : Variable

Bit rate                         : 1 772 Kbps

Maximum bit rate                 : 40.0 Mbps

Width                            : 1 280 pixels

Height                           : 720 pixels

Display aspect ratio             : 16:9

Frame rate                       : 23.976 fps

Color space                      : YUV

Chroma subsampling               : 4:2:0

Bit depth                        : 8 bits

Scan type                        : Progressive

Bits/(Pixel*Frame)               : 0.080

Stream size                      : 272 MiB (78%)

Writing library                  : x264 core 112 r1867 22bfd31

Encoding settings                : cabac=1 / ref=4 / deblock=1:1:1 / analyse=0x3:0x113 / me=hex / subme=7 / psy=1 / psy_rd=0.40:0.00 / mixed_ref=1 / me_range=16 / chroma_me=1 / trellis=1 / 8x8dct=1 / cqm=0 / deadzone=21,11 / fast_pskip=1 / chroma_qp_offset=-2 / threads=6 / sliced_threads=0 / slices=4 / nr=0 / decimate=1 / interlaced=0 / constrained_intra=0 / bframes=3 / b_pyramid=1 / b_adapt=1 / b_bias=0 / direct=1 / weightb=1 / open_gop=2 / weightp=0 / keyint=50 / keyint_min=5 / scenecut=40 / intra_refresh=0 / rc_lookahead=40 / rc=2pass / mbtree=1 / bitrate=1772 / ratetol=1.0 / qcomp=0.60 / qpmin=0 / qpmax=51 / qpstep=4 / cplxblur=20.0 / qblur=0.5 / vbv_maxrate=40000 / vbv_bufsize=30000 / nal_hrd=vbr / ip_ratio=1.40 / aq=1:0.60

Language                         : English

Color primaries                  : BT.709-5, BT.1361, IEC 61966-2-4, SMPTE RP177

Transfer characteristics         : BT.709-5, BT.1361

Matrix coefficients              : BT.709-5, BT.1361, IEC 61966-2-4 709, SMPTE RP177



Audio



ID                               : 2

Format                           : AC-3

Format/Info                      : Audio Coding 3

Mode extension                   : CM (complete main)

Codec ID                         : A_AC3

Duration                         : 22mn 0s

Bit rate mode                    : Constant

Bit rate                         : 448 Kbps

Channel(s)                       : 6 channels

Channel positions                : Front: L C R, Side: L R, LFE

Sampling rate                    : 48.0 KHz

Bit depth                        : 16 bits

Compression mode                 : Lossy

Stream size                      : 70.5 MiB (20%)



Screens













SCREENSHOTSCREENSHOT



Brought to you by







SCREENSHOT


Scrape History ( seeds + peers )

Trackers

Refresh Leechers : Updated October 27, 2014

1. http://fr33dom.h33t.com:3310/announce

2. http://inferno.demonoid.me:3416/announce

3. http://exodus.1337x.org/announce

4. http://tracker.publicbt.com:80/announce

5. http://10.rarbg.com/announce

6. http://genesis.1337x.org:1337/announce

7. http://pow7.com/announce

8. udp://tracker.openbittorrent.com:80/announce

9. udp://tracker.publicbt.com:80/announce

Comments

You must log in to add a comment.

Embed Code

Sharing Widget