Bit Torrent Scene a public file sharing platform Home Upload Categories Collections Blog About

Yeh Dillagi (1994) Hindi - Untouched - DVD9 - NTSC - Ibraram-=DrC=-@MastiTorrents

DOWNLOAD TORRENT

Posted on November 16, 2011 in Movies » Misc , downloaded 17 times , verified torrent

Size: 5.56 GB , Seeds: 0 , Peers: 3 ( Updated November 14, 2012 - Refresh )

* Download via Magnet Link

* To download files you need a Bittorrent Client , * How to download torrents from Bit Torrent Scene?

advertising ( remove )

External Info

Subtitles | Trailer | Wikipedia | Other Info

Internal Files

Ye Dillagi (1994) - Untouched - DVD9 - NTSC - Ibraram
VTS_01_3.VOB   1023.94 MB
VTS_01_1.VOB   1023.83 MB
VTS_01_4.VOB   1023.82 MB
VTS_01_2.VOB   1023.69 MB
VTS_01_5.VOB   947.24 MB
VTS_02_1.VOB   387.91 MB
VIDEO_TS.VOB   180.76 MB
VTS_01_0.VOB   71.47 MB
VTS_02_0.VOB   2.35 MB
VTS_01_0.BUP   120 KB
VTS_01_0.IFO   120 KB
VTS_02_0.IFO   24 KB
VTS_02_0.BUP   24 KB
VIDEO_TS.BUP   14 KB
VIDEO_TS.IFO   14 KB

Hash Code

7b8e6a313b89b11397ec6331045ca3cc4a616ac9

Description












Yeh Dillagi (1994) - Untouched - DVD9 - NTSC - Ibraram-=DrC=-



































Code:






Movie : Ye Dillagi (1994)

Imdb : http://www.imdb.com/title/tt0111793/

Language : Hindi

Distributor : Music World

Source : DVD9 @ DrC Entertainment House

Ripper : Ibraram @ DrC

Size : .99 GB

Container : Vobs Untouched

Release Date : 6 May 1994 (India)

Genre : Drama | Romance

Director : Naresh Malhotra

Writers : Sachin Bhowmick (screenplay), Sachin Bhowmick (story)

Stars : Akshay Kumar, Kajol, Saif Ali Khan, Rome Lago, Said Jeffrey

Music Label : T-Series

Music Director :

Lyricist : Sameer

User Rating : 5.2/10 from 1,129 users



Ripper Note:





Njoy DrC Release.



Always Seed After Complete Enjoy.












Storyline





Code:












Sapna, the daughter of the Saigal family's driver



is a simple fun-loving girl, but her dreams are



not as simple. She dreams about riches and day-dreams



about her dream man. Vijay Saigal and Vicky Saigal,



both heirs to Saigal Industries have almost all the



qualities of a dream man. Almost. Because "All



work and no play" makes Vijay a dull boy and "All



play and no work" makes Vicky and outrageous flirt,



as he does not believe in the affairs of the hearts,



but only in affairs. But then even Sapna is not



made of the stuff, dream girls are made of. Not



until she becomes a successful model and transforms



into a beautiful girl. That's when she become



Vicky's dream girl. But Sapna's success hasn't



changed her status. She is still the driver's



daughter and Mrs. Shanti Devi may overlook her son's



affairs with rich girls but not with a driver's daughter.





















Technical info:





Code:














Format : MPEG-PS

Overall bit rate : 4 990 Kbps



Video

ID : 224 (0xE0)

Format : MPEG Video

Format version : Version 2

Format profile : Main@Main

Format settings, BVOP : No

Format settings, Matrix : Default

Format settings, GOP : M=1, N=16

Duration : 5mn 12s

Bit rate : 4 500 Kbps

Width : 704 pixels

Height : 480 pixels

Display aspect ratio : 16:9

Frame rate : 29.970 fps

Standard : NTSC

Color space : YUV

Chroma subsampling : 4:2:0

Bit depth : 8 bits

Scan type : Interlaced

Scan order : Top Field First

Compression mode : Lossy

Bits/(Pixel*Frame) : 0.444

Stream size : 168 MiB (90%)



Audio

ID : 189 (0xBD)-128 (0x80)

Format : AC-3

Format/Info : Audio Coding 3

Mode extension : CM (complete main)

Muxing mode : DVD-Video

Bit rate mode : Constant

Bit rate : 384 Kbps

Channel(s) : 6 channels

Channel positions : Front: L C R, Side: L R, LFE

Sampling rate : 48.0 KHz

Bit depth : 16 bits

Compression mode : Lossy

Delay relative to video : -207ms

Stream size : 14.3 MiB (8%)















































































































[FONT="Comic Sans MS"]Stay tuned for more DrC releases.[/FONT]







[FONT="Lucida Console"]

Keep seeding after download!
[/FONT]












Enjoy super seeding.









Torrent location

http://www.1337x.org/torrent/266028/0/

Scrape History ( seeds + peers )

Trackers

Refresh Leechers : Updated November 14, 2012

http://www.mastitorrents.com:30303/0000dd3c00c2db3bad0f2018f981c997/announce

Comments

You must log in to add a comment.

Embed Code

Sharing Widget

Top Movies ( auto generated report )

FILENAME SIZE SEEDS PEERS ADDED UPD
[i] Divergent (2014) 720p BrRip x264 - YIFY
Movies - Sci-Fi , Quality: Audio 9/10 - Video 9/10
934.5 MB 34345 32852 1 day 5 hours
[i] Divergent.2014.1080p.WEB-DL.DD5.1.H264-RARBG
Movies - Action , Quality: Audio 9/10 - Video 9/10
4.28 GB 20645 19987 2 days 1 day
[i] Oculus (2013) 720p BrRip x264 - YIFY
Movies - Horror , Quality: Audio 9/10 - Video 9/10
808.5 MB 10425 7404 1 day 8 hours
[i] Divergent.2014.HDRip.XViD[AC3]juggs[ETRG]
Movies - Sci-Fi , Quality: Audio 9/10 - Video 9/10
1.38 GB 8708 8227 2 days 1 day
[i] Hercules Reborn (2014) 720p BrRip x264 - YIFY
Movies - Action , Quality: Audio 9/10 - Video 9/10
756.5 MB 6838 6737 3 days 2 days
[i] Sector.4.Extraction.2014.DVDRip.XviD-iFT
Movies - Action , Quality: Audio 8/10 - Video 8/10
732.07 MB 6298 4142 3 days 2 days
[i] Chrysalis 2014 HDRiP XViD-HORRORSPOKE
Movies - Sci-Fi , Quality: Audio 9/10 - Video 9/10
866.3 MB 5614 2372 2 days 1 day
[i] Oculus (2013) 1080p BrRip x264 - YIFY 1.64 GB 4929 4082 1 day 7 hours
[i] Spud 2 The Madness Continues (2013) 720p BrRip x264 - YIFY
Movies - Comedy , Quality: Audio 9/10 - Video 9/10
704.5 MB 3502 2617 1 day 18 hours
[i] Ring Master (2014) - Malayalam - DVDRip - 700 MB - X264 - AAC 5.1 - E Subs 701.3 MB 3155 2709 1 day 5 hours