Home Upload Categories Collections Blog About

Yeh Dillagi (1994) Hindi - Untouched - DVD9 - NTSC - Ibraram-=DrC=-@MastiTorrents

DOWNLOAD TORRENT

Posted 2 years ago in Movies » Misc , downloaded 17 times , verified torrent

Size: 5.56 GB , Seeds: 0 , Peers: 3

Updated 1 year ago

* Download via Magnet Link , * Anonymous Download with Torrent Privacy

* To download files you need a Bittorrent Client , * How to download torrents from BitTorrentScene?

advertising ( remove )

Scrape History ( seeds + peers )

External Info

Subtitles | Trailer | Wikipedia | Other Info

Internal Files

Ye Dillagi (1994) - Untouched - DVD9 - NTSC - Ibraram
VTS_01_3.VOB   1023.94 MB
VTS_01_1.VOB   1023.83 MB
VTS_01_4.VOB   1023.82 MB
VTS_01_2.VOB   1023.69 MB
VTS_01_5.VOB   947.24 MB
VTS_02_1.VOB   387.91 MB
VIDEO_TS.VOB   180.76 MB
VTS_01_0.VOB   71.47 MB
VTS_02_0.VOB   2.35 MB
VTS_01_0.BUP   120 KB
VTS_01_0.IFO   120 KB
VTS_02_0.IFO   24 KB
VTS_02_0.BUP   24 KB
VIDEO_TS.BUP   14 KB
VIDEO_TS.IFO   14 KB

Hash Code

7b8e6a313b89b11397ec6331045ca3cc4a616ac9

Description












Yeh Dillagi (1994) - Untouched - DVD9 - NTSC - Ibraram-=DrC=-



































Code:






Movie : Ye Dillagi (1994)

Imdb : http://www.imdb.com/title/tt0111793/

Language : Hindi

Distributor : Music World

Source : DVD9 @ DrC Entertainment House

Ripper : Ibraram @ DrC

Size : .99 GB

Container : Vobs Untouched

Release Date : 6 May 1994 (India)

Genre : Drama | Romance

Director : Naresh Malhotra

Writers : Sachin Bhowmick (screenplay), Sachin Bhowmick (story)

Stars : Akshay Kumar, Kajol, Saif Ali Khan, Rome Lago, Said Jeffrey

Music Label : T-Series

Music Director :

Lyricist : Sameer

User Rating : 5.2/10 from 1,129 users



Ripper Note:





Njoy DrC Release.



Always Seed After Complete Enjoy.












Storyline





Code:












Sapna, the daughter of the Saigal family's driver



is a simple fun-loving girl, but her dreams are



not as simple. She dreams about riches and day-dreams



about her dream man. Vijay Saigal and Vicky Saigal,



both heirs to Saigal Industries have almost all the



qualities of a dream man. Almost. Because "All



work and no play" makes Vijay a dull boy and "All



play and no work" makes Vicky and outrageous flirt,



as he does not believe in the affairs of the hearts,



but only in affairs. But then even Sapna is not



made of the stuff, dream girls are made of. Not



until she becomes a successful model and transforms



into a beautiful girl. That's when she become



Vicky's dream girl. But Sapna's success hasn't



changed her status. She is still the driver's



daughter and Mrs. Shanti Devi may overlook her son's



affairs with rich girls but not with a driver's daughter.





















Technical info:





Code:














Format : MPEG-PS

Overall bit rate : 4 990 Kbps



Video

ID : 224 (0xE0)

Format : MPEG Video

Format version : Version 2

Format profile : Main@Main

Format settings, BVOP : No

Format settings, Matrix : Default

Format settings, GOP : M=1, N=16

Duration : 5mn 12s

Bit rate : 4 500 Kbps

Width : 704 pixels

Height : 480 pixels

Display aspect ratio : 16:9

Frame rate : 29.970 fps

Standard : NTSC

Color space : YUV

Chroma subsampling : 4:2:0

Bit depth : 8 bits

Scan type : Interlaced

Scan order : Top Field First

Compression mode : Lossy

Bits/(Pixel*Frame) : 0.444

Stream size : 168 MiB (90%)



Audio

ID : 189 (0xBD)-128 (0x80)

Format : AC-3

Format/Info : Audio Coding 3

Mode extension : CM (complete main)

Muxing mode : DVD-Video

Bit rate mode : Constant

Bit rate : 384 Kbps

Channel(s) : 6 channels

Channel positions : Front: L C R, Side: L R, LFE

Sampling rate : 48.0 KHz

Bit depth : 16 bits

Compression mode : Lossy

Delay relative to video : -207ms

Stream size : 14.3 MiB (8%)















































































































[FONT="Comic Sans MS"]Stay tuned for more DrC releases.[/FONT]







[FONT="Lucida Console"]

Keep seeding after download!
[/FONT]












Enjoy super seeding.









Torrent location

http://www.1337x.org/torrent/266028/0/

Trackers

Updated 1 year ago

http://www.mastitorrents.com:30303/0000dd3c00c2db3bad0f2018f981c997/announce

Comments

You must log in to add a comment.

Embed Code

Sharing Widget

Top Movies ( auto generated report )

FILENAME SIZE SEEDS PEERS ADDED UPD
[i] Son of Batman [2014] BRRip XviD-SaM[ETRG]
Movies - Animation , Quality: Audio 9/10 - Video 9/10
705.3 MB 18478 12495 1 day 13 hours
[i] The Physician (2013) 720p BrRip x264 - YIFY
Movies - Drama , Quality: Audio 9/10 - Video 9/10
990.5 MB 9534 8783 16 hours 16 hours
[i] Labor Day (2013) 720p BrRip x264 - YIFY
Movies - Drama , Quality: Audio 9/10 - Video 9/10
814.5 MB 8844 3579 3 days 1 day
[i] The Art of the Steal (2013) 720p BrRip x264 - YIFY
Movies - Comedy , Quality: Audio 9/10 - Video 9/10
700.5 MB 14644 5449 2 days 1 hour
[i] Devil's Due[2014] HDRip XViD juggs[ETRG]
Movies - Horror , Quality: Audio 9/10 - Video 8/10
708.32 MB 7406 4406 2 days 10 hours
[i] The Appearing [2014] HDRip XViD juggs[ETRG]
Movies - Horror , Quality: Audio 9/10 - Video 9/10
709.32 MB 5078 4053 2 days 6 hours
[i] Ride Along (2014) 1080p BrRip x264 - YIFY
Movies - Action , Quality: Audio 9/10 - Video 9/10
1.45 GB 4631 755 3 days 1 day
[i] War of the Worlds: Goliath (2012) 720p BrRip x264 - YIFY
Movies - Animation , Quality: Audio 9/10 - Video 9/10
700.5 MB 4190 1969 3 days 1 day
[i] G.B.F. (2013) 720p BrRip x264 - YIFY
Movies - Comedy , Quality: Audio 9/10 - Video 9/10
756.5 MB 4965 2960 2 days 2 hours
[i] The Physician (2013) 1080p BrRip x264 - YIFY 2.05 GB 2451 3201 1 day 7 hours